Завантажити та скачати торренти українською


Мавпочки мутанти-ніндзя / The Avenging apes of Africa (2006) AVC

Нові коментарі

Нова тема   Відповісти
Останній раз роздавалося Vlastimil (2016-12-07)
Автор Повідомлення
Drool 
VIP


З нами з: 17.04.10
Востаннє: 08.12.16
Повідомлень: 1267

2013-09-03 07:20  
Мавпочки мутанти-ніндзя / The Avenging apes of Africa (2006) AVC

Жанр: анімація
Країна: США

Кінокомпанія: Grace Animation Studios
Режисер: Білл Хаттен
Сюжет:
Шість великих мавп, осиротілих через жорстокого браконьєра в джунглях Конго, здобули здібності супергероїв, спробувавши древню цілющу сироватку.
Мавпи поклялися врятувати й захистити тварин, що знаходяться в небезпеці й вимирають по всьому світу. Мавпочки-мутанти працюють із Бюро Захисту Тварин, щоб розшукати ворога всіх звірів номер один, Гаррі Річборна, який разом зі своїми злими ловцями викрадає безневинних тварин, щоб потім продати їх на чорному ринку.


Тривалість: 00:52:40
Якість: AVC
Відео:
кодек:
розмір кадру: 716x572@764x572
бітрейт: 2545 кб/с
CRF: 18

Аудіо:
мова: українська
переклад: багатоголосий закадровий
кодек: 2.0
бітрейт: 192 кб/с

Джерело озвучення:
Info
[info]: frame I:744 Avg QP:17,50 size: 79681 PSNR Mean Y:46,54 U:49,00 V:49,53 Avg:47,25 Global:46,90
[info]: frame P:13624 Avg QP:19,00 size: 28761 PSNR Mean Y:44,89 U:47,43 V:48,13 Avg:45,62 Global:45,17
[info]: frame B:39383 Avg QP:21,45 size: 14624 PSNR Mean Y:43,89 U:46,71 V:47,46 Avg:44,68 Global:44,16
[info]: consecutive B-frames: 4,4% 5,6% 10,8% 32,4% 17,7% 15,1% 5,8% 3,4% 2,2% 2,7%
[info]: mb I I16..4: 8,2% 48,9% 42,9%
[info]: mb P I16..4: 1,9% 10,1% 7,2% P16..4: 24,1% 21,1% 11,0% 3,3% 0,8% skip:20,6%
[info]: mb B I16..4: 0,4% 2,4% 2,0% B16..8: 24,2% 12,3% 3,3% direct: 7,0% skip:48,5% L0:37,8% L1:45,7% BI:16,5%
[info]: 8x8 transform intra:51,2% inter:38,8%
[info]: direct mvs spatial:100,0% temporal:0,0%
[info]: coded y,uvDC,uvAC intra: 86,3% 86,9% 77,0% inter: 23,9% 25,2% 13,6%
[info]: i16 v,h,dc,p: 20% 38% 6% 36%
[info]: i8 v,h,dc,ddl,ddr,vr,hd,vl,hu: 12% 15% 10% 8% 9% 10% 11% 12% 15%
[info]: i4 v,h,dc,ddl,ddr,vr,hd,vl,hu: 13% 13% 7% 8% 12% 12% 12% 11% 13%
[info]: i8c dc,h,v,p: 37% 29% 18% 15%
[info]: Weighted P-Frames: Y:10,8% UV:9,2%
[info]: ref P L0: 61,7% 8,5% 13,3% 5,6% 3,9% 3,0% 2,4% 1,4% 0,3% 0,0%
[info]: ref B L0: 77,5% 10,1% 5,3% 2,7% 2,0% 1,6% 0,9%
[info]: ref B L1: 91,2% 8,8%
[info]: SSIM Mean Y:0,9885175 (19,400db)
[info]: PSNR Mean Y:44,182 U:46,927 V:47,660 Avg:44,957 Global:44,422 kb/s:2599,34
MediaInfo
General
Unique ID : 252524411900758607308016460339518686055 (0xBDFA6EC299569390330FD3EEC994C367)
Complete name : /mnt/disk/Video/The.Avenging.apes.of.Africa.2006.Ukr.MVO.AVC.UAGet.mkv
Format : Matroska
File size : 1.03 GiB
Duration : 52mn 40s
Overall bit rate : 2 793 Kbps
Movie name : Мавпочки мутанти-ніндзя / The Avenging apes of Africa (2006) AVC -=UAGet=-
Encoded date : UTC 2013-09-03 04:56:27
Writing application : mkvmerge v4.8.0 ('I Got The...') сборка от Aug 22 2011 13:16:28
Writing library : libebml v1.2.0 + libmatroska v1.1.0

Video
ID : 1
Format : AVC
Format/Info : Advanced Video Codec
Format profile : [email protected]
Format settings, CABAC : Yes
Format settings, ReFrames : 8 frames
Codec ID : V_MPEG4/ISO/AVC
Duration : 52mn 41s
Bit rate : 2 545 Kbps
Width : 716 pixels
Height : 572 pixels
Display aspect ratio : 4:3
Original display aspect ratio : 4:3
Frame rate mode : Variable
Frame rate : 25.000 fps
Color space : YUV
Chroma subsampling : 4:2:0
Bit depth : 8 bits
Scan type : Progressive
Bits/(Pixel*Frame) : 0.249
Stream size : 959 MiB (91%)
Title : Мавпочки мутанти-ніндзя (2006) AVC -=UAGet=-
Writing library : core 135 r2345 f0c1c53
Encoding settings : cabac=1 / ref=9 / deblock=1:-2:-1 / analyse=0x3:0x133 / me=umh / subme=11 / psy=1 / psy_rd=1,20:0,15 / mixed_ref=1 / me_range=32 / chroma_me=1 / trellis=2 / 8x8dct=1 / cqm=0 / deadzone=21,11 / fast_pskip=0 / chroma_qp_offset=-3 / threads=6 / lookahead_threads=1 / sliced_threads=0 / nr=0 / decimate=1 / interlaced=0 / bluray_compat=0 / constrained_intra=0 / bframes=9 / b_pyramid=1 / b_adapt=2 / b_bias=0 / direct=3 / weightb=1 / open_gop=0 / weightp=2 / keyint=250 / keyint_min=25 / scenecut=40 / intra_refresh=0 / rc=crf / mbtree=0 / crf=18,0 / qcomp=1,00 / qpmin=0 / qpmax=69 / qpstep=4 / ip_ratio=1,40 / pb_ratio=1,30 / aq=2:0,60
Color primaries : BT.470-6 System B, BT.470-6 System G, BT.601-6 625, BT.1358 625, BT.1700 625 PAL, BT.1700 625 SECAM
Transfer characteristics : BT.709-5, BT.1361
Matrix coefficients : BT.601-6 525, BT.1358 525, BT.1700 NTSC, SMPTE 170M

Audio
ID : 2
Format : AC-3
Format/Info : Audio Coding 3
Mode extension : CM (complete main)
Codec ID : A_AC3
Duration : 52mn 40s
Bit rate mode : Constant
Bit rate : 192 Kbps
Channel(s) : 2 channels
Channel positions : Front: L R
Sampling rate : 48.0 KHz
Bit depth : 16 bits
Compression mode : Lossy
Stream size : 72.3 MiB (7%)
Title : Українська (багатоголосий закадровий) телеканал ТЕТ
Language : Ukrainian
Скріншоти









Джерело:
Особиста оцінка: 6 - третій сорт - не брак


 Трекер:    Зареєстрований   

Завантажити / скачати мультфільм українською



відео для новачків



 Зареєстрований:   2013-09-03 07:20
 Розмір:   1.03 GB 
 Оцінка мультфільму:   6.4/10 (Голосів: 5)
   
Інші релізи
Ваш часовий пояс: GMT + 2 Години

Нова тема   Відповісти