Завантажити та скачати торренти українською


Більше ніж секс / No Strings Attached (2011) 720p 2xUkr/Eng | Sub Ukr/Eng

Нові коментарі

Нова тема   Відповісти
Автор Повідомлення
4erkov 
Відео Гуртом - запис з ТБ
Відео Гуртом - запис з ТБ


З нами з: 09.10.10
Востаннє: 06.12.16
Повідомлень: 1846

2013-09-02 13:55  
Більше ніж секс / No Strings Attached (2011) 720p 2xUkr/Eng | Sub Ukr/Eng

Більше ніж секс / No Strings Attached (2011) 720p 2xUkr/Eng | Sub Ukr/Eng

Жанр: комедія, мелодрама
Країна: США

Кіностудія / кінокомпанія: Paramount Pictures, Cold Spring Pictures
Режисер: Айвен Рейтмен
Актори: Наталі Портман, Ештон Катчер, Кері Елвіс, Лейк Белл, Кевін Кляйн, Олівія Тірлбі, Грета Гервіг, Талія Балсам
Сюжет:
Вільні стосунки дозволяють зустрічатися з ким завгодно і не мати жодних зобов’язань. Взаємини такого формату хотіли б мати всі головні герої цієї стрічки. Але ще нікому не вдавалось приборкати сильні почуття, тому раптова любов змінила долю двох молодих людей, які дуже старалися, проте усвідомили, що не проживуть одне без одного ані хвилини.

Тривалість: 01:47:58
Якість: 720p [ріп від DON]
Відео:
кодек: H. 264
розмір кадру: 1280 х 534
бітрейт: 6750 кб/с

Аудіо:
мова: українська
переклад: професійний дубльований | DVD R5
кодек: 5.1
бітрейт: 448 кб/с
Інформація про дубляж
Режисер дубляжу: Ольга Чернілевська
Переклад: Сергія Ковальчука
Звукорежисери: Михайло Угрин, Олег Кульчицький
Асистент режисера дубляжу: Ольга Боєва
Ролі дублювали: Захар Клименко, Юлія Перенчук, Христина Конечна, Валерій Легін, Сергій Солопай, Катерина Коновалова, Марина Локтіонова та інші.
Фільм дубльовано LeDoyen Studio на замовлення B&H Film Distribution. Зміксовано на студії LeDoyen Studio.
Аудіо # 2:
мова: українська
переклад: багатоголосий закадровий | К1
кодек: 2.0
бітрейт: 192 кб/с
Інформація про озвучення
Ролі озвучили: Анатолій Пашнін, Юрій Сосков, Катерина Буцька, Юлія Перенчук
Аудіо # 3:
мова: англійська
переклад: оригінал
кодек: 5.1
бітрейт: 640 кб/с

Субтитри:
мова: українська
тип: програмні (м'які)
формат: *.srt

Субтитри #2:
мова: англійська
тип: програмні (м'які)
формат: *.srt
Скріншоти


Media-Info
Код:
General
Unique ID                                : 193439541201160955899825094861065866729 (0x918719B93D60F44DAF95C307EEE0CDE9)
Complete name                            : D:\Релізи\No Strings Attached\Готово\No Strings Attached (2011) (720p) Ukr.Eng Sub-Ukr.Eng [Hurtom].mkv
Format                                   : Matroska
Format version                           : Version 4 / Version 2
File size                                : 6.06 GiB
Duration                                 : 1h 47mn
Overall bit rate                         : 8 029 Kbps
Movie name                               : No Strings Attached (2011) [Hurtom]
Encoded date                             : UTC 2010-02-22 21:41:31
Writing application                      : mkvmerge v5.9.0 ('On The Loose') built on Dec  9 2012 15:37:01
Writing library                          : libebml v1.3.0 + libmatroska v1.4.0

Video
ID                                       : 1
Format                                   : AVC
Format/Info                              : Advanced Video Codec
Format profile                           : [email protected]
Format settings, CABAC                   : Yes
Format settings, ReFrames                : 12 frames
Codec ID                                 : V_MPEG4/ISO/AVC
Duration                                 : 1h 47mn
Bit rate                                 : 6 750 Kbps
Width                                    : 1 280 pixels
Height                                   : 534 pixels
Display aspect ratio                     : 2.40:1
Frame rate mode                          : Constant
Frame rate                               : 23.976 fps
Color space                              : YUV
Chroma subsampling                       : 4:2:0
Bit depth                                : 8 bits
Scan type                                : Progressive
Bits/(Pixel*Frame)                       : 0.412
Stream size                              : 4.97 GiB (82%)
Title                                    :
Writing library                          : core 114 r1900 60ef1f8
Encoding settings                        : cabac=1 / ref=12 / deblock=1:-3:-3 / analyse=0x3:0x113 / me=umh / subme=9 / psy=1 / psy_rd=1.10:0.00 / mixed_ref=1 / me_range=32 / chroma_me=1 / trellis=1 / 8x8dct=1 / cqm=0 / deadzone=21,11 / fast_pskip=0 / chroma_qp_offset=-2 / threads=18 / sliced_threads=0 / nr=0 / decimate=0 / interlaced=0 / constrained_intra=0 / bframes=6 / b_pyramid=2 / b_adapt=2 / b_bias=0 / direct=1 / weightb=1 / open_gop=0 / weightp=2 / keyint=250 / keyint_min=23 / scenecut=40 / intra_refresh=0 / rc_lookahead=40 / rc=2pass / mbtree=1 / bitrate=6750 / ratetol=1.0 / qcomp=0.60 / qpmin=0 / qpmax=69 / qpstep=4 / cplxblur=20.0 / qblur=0.5 / ip_ratio=1.40 / aq=1:0.80
Language                                 : English
Default                                  : No
Forced                                   : No

Audio #1
ID                                       : 2
Format                                   : AC-3
Format/Info                              : Audio Coding 3
Mode extension                           : CM (complete main)
Format settings, Endianness              : Big
Codec ID                                 : A_AC3
Duration                                 : 1h 47mn
Bit rate mode                            : Constant
Bit rate                                 : 448 Kbps
Channel(s)                               : 6 channels
Channel positions                        : Front: L C R, Side: L R, LFE
Sampling rate                            : 48.0 KHz
Bit depth                                : 16 bits
Compression mode                         : Lossy
Stream size                              : 346 MiB (6%)
Title                                    : DUB (R5)
Language                                 : Ukrainian
Default                                  : Yes
Forced                                   : No

Audio #2
ID                                       : 3
Format                                   : AC-3
Format/Info                              : Audio Coding 3
Mode extension                           : CM (complete main)
Format settings, Endianness              : Big
Codec ID                                 : A_AC3
Duration                                 : 1h 47mn
Bit rate mode                            : Constant
Bit rate                                 : 192 Kbps
Channel(s)                               : 2 channels
Channel positions                        : Front: L R
Sampling rate                            : 48.0 KHz
Bit depth                                : 16 bits
Compression mode                         : Lossy
Stream size                              : 148 MiB (2%)
Title                                    : MVO (K1)
Language                                 : Ukrainian
Default                                  : No
Forced                                   : No

Audio #3
ID                                       : 4
Format                                   : AC-3
Format/Info                              : Audio Coding 3
Mode extension                           : CM (complete main)
Format settings, Endianness              : Big
Codec ID                                 : A_AC3
Duration                                 : 1h 47mn
Bit rate mode                            : Constant
Bit rate                                 : 640 Kbps
Channel(s)                               : 6 channels
Channel positions                        : Front: L C R, Side: L R, LFE
Sampling rate                            : 48.0 KHz
Bit depth                                : 16 bits
Compression mode                         : Lossy
Stream size                              : 494 MiB (8%)
Title                                    : Original
Language                                 : English
Default                                  : No
Forced                                   : No

Text #1
ID                                       : 5
Format                                   : UTF-8
Codec ID                                 : S_TEXT/UTF8
Codec ID/Info                            : UTF-8 Plain Text
Language                                 : Ukrainian
Default                                  : No
Forced                                   : No

Text #2
ID                                       : 6
Format                                   : UTF-8
Codec ID                                 : S_TEXT/UTF8
Codec ID/Info                            : UTF-8 Plain Text
Language                                 : English
Default                                  : No
Forced                                   : No

Menu
00:00:00.000                             : en:00:00:00.000
00:05:32.207                             : en:00:05:32.207
00:10:04.395                             : en:00:10:04.395
00:17:38.307                             : en:00:17:38.307
00:25:59.391                             : en:00:25:59.391
00:34:34.281                             : en:00:34:34.281
00:42:40.183                             : en:00:42:40.183
00:48:48.467                             : en:00:48:48.467
00:57:07.382                             : en:00:57:07.382
01:05:35.515                             : en:01:05:35.515
01:13:35.786                             : en:01:13:35.786
01:18:54.063                             : en:01:18:54.063
01:25:37.883                             : en:01:25:37.883
01:31:12.842                             : en:01:31:12.842
01:38:38.496                             : en:01:38:38.496

Джерело: Запис з К1 та зведення - 4erkov. За основу взято реліз від HDClub.
Особиста оцінка: 8/10.


 Трекер:    Зареєстрований   

Завантажити / скачати фільм українською



відео для новачків



 Зареєстрований:   2014-02-03 10:49
 Розмір:   6.06 GB 
 Оцінка фільму:   9.8/10 (Голосів: 6)
   
Інші релізи
somnambula 
Відео Гуртом - дизайнер
Відео Гуртом - дизайнер


З нами з: 06.11.09
Востаннє: 06.12.16
Повідомлень: 760

2013-09-02 19:21  
Краще б вже зняли фільм про неймовірності кулінарного мистецтва і назвали його "Більше, ніж кекс"))
ua2004 
Відео Гуртом - фільмокрай
Відео Гуртом - фільмокрай


З нами з: 31.01.08
Востаннє: 06.12.16
Повідомлень: 3128

2013-09-03 08:30  
А мені фільм дуже сподобався. Наталі Портман, як завжди, красуня.
fridamarykahlo 
Частий відвідувач


З нами з: 25.10.12
Востаннє: 28.11.16
Повідомлень: 27

2013-09-03 11:31  
В фільмах такого типу я взагалі не бачу сенсу. Я дуже люблю Наталі, вважаю її однією з найгарніших і талановитіших актрис, але не розумію як вона могла на це погодитися? Це ж не Дженніфер Еністон, яка окрім "Друзів" і ще парочки непоганих фільмів більше ні в чому путящому не знімається. Ештон мені подобається, але в нього теж "клеймо" одноразового актора. З самої назви одразу зрозуміло чим закінчиться, до того ж він зовсім не повчальний. Як кажуть: "з пивом підійде".
Prolis 
Частий відвідувач


З нами з: 21.12.11
Востаннє: 12.11.15
Повідомлень: 29

2013-09-04 22:45  
Цитата:
Ештон Катчер

Та Кутчер він, Кутчер Confused

bot 
робот


З нами з: 30.09.07
Востаннє: 26.05.05
Повідомлень: 16019

2013-09-14 14:48  
Тему перенесено з Анонси релізів від Відео Гуртом до форуму Пісочниця


4erkov

bot 
робот


З нами з: 30.09.07
Востаннє: 26.05.05
Повідомлень: 16019

2014-02-03 10:49  
Тему перенесено з Пісочниця до форуму Фільми в HD


4erkov

Х-Хед 
VIP


З нами з: 06.05.12
Востаннє: 12.11.16
Повідомлень: 297

2014-02-03 21:09  
fridamarykahlo написано:
Як кажуть: "з пивом підійде"

Як кажуть, хто пива не п'є-той в ділі участі не бере. Не хочу псувати собі думку ні про Портман ні про Захід вцілому.(

Ваш часовий пояс: GMT + 2 Години

Нова тема   Відповісти