Завантажити та скачати торренти українською


Читець / The Reader (2008) 1080p Ukr/Eng | Sub Eng

Нові коментарі

Нова тема   Відповісти
Автор Повідомлення
ratbol 
Модератор HD


З нами з: 03.02.09
Востаннє: 01.12.16
Повідомлень: 1088

2013-09-02 12:29  
Читець / The Reader (2008) 1080p Ukr/Eng | Sub Eng


Жанр: драма, романтичний
Країна: США, Німеччина



Кінокомпанія: Weinstein Company, The, Mirage Enterprises, Neunte Babelsberg Film
Режисер: Стівен Долдрі
Актори: Рейф Файнс, Кейт Вінслет, Девід Кросс, Жанет Гейн, Сюзанн Лотар, Алісса Вілмс, Флоріан Бертоломай та інші
Вікові обмеження: 16+

Сюжет:
Єдиною людиною, яка допомагає юнакові дістатися додому, виявляється кондуктор трамвая Ханна Шмітц. За три місяці Міхаель, який уже одужав, приходить до своєї рятівниці, щоб віддячити їй. У юнака і 36-річної жінки починається роман. Досвідчена Ханна вчить Міхаеля всім тонкощам кохання, а натомість просить його читати їй уголос книги. Через кілька місяців Міхаель дізнається, що Ханна зникла, залишивши порожню квартиру. Минає вісім років. Міхаель – студент юридичного факультету, присутній на показовому процесі над нацистськими злочинцями. До свого жаху, серед підсудних він упізнає Ханну...


Тривалість: 02:03:58
Якість: 1080p
Відео:
кодек:
розмір кадру: 1920х 1036
бітрейт: 12.7 Мб/с

Аудіо # 1:
мова: українська
переклад: багатоголосий закадровий | ТЕТ
кодек: 2.0
бітрейт: 192 кб/с Аудіо # 2:
мова: англійська
переклад: оригінал
кодек: 5.1
бітрейт: 1536 кб/с

Субтитри:
мова: англійська
тип: програмні (м'які)
формат: *.srt

MediaInfo
General
Unique ID : 235958306367456000328812922021976417680 (0xB183EAB27CB7398AA9391E27F61F2590)
Complete name : H:\Reader, The (2008) [Ukr, Eng. Sub Eng] 1080p [Hurtom].mkv
Format : Matroska
Format version : Version 4 / Version 2
File size : 12.5 GiB
Duration : 2h 3mn
Overall bit rate : 14.4 Mbps
Movie name : Читець / The Reader (2008) [Hurtom]
Encoded date : UTC 2013-08-30 12:09:00
Writing application : mkvmerge v6.1.0 ('Old Devil') built on Mar 2 2013 14:32:37
Writing library : libebml v1.3.0 + libmatroska v1.4.0

Video
ID : 1
Format : AVC
Format/Info : Advanced Video Codec
Format profile : [email protected]
Format settings, CABAC : Yes
Format settings, ReFrames : 4 frames
Codec ID : V_MPEG4/ISO/AVC
Duration : 2h 3mn
Bit rate : 12.7 Mbps
Width : 1 920 pixels
Height : 1 036 pixels
Display aspect ratio : 1.85:1
Frame rate mode : Constant
Frame rate : 23.976 fps
Color space : YUV
Chroma subsampling : 4:2:0
Bit depth : 8 bits
Scan type : Progressive
Bits/(Pixel*Frame) : 0.267
Stream size : 10.8 GiB (86%)
Title : Ріп від DON
Writing library : core 67 r1139M 1024283
Encoding settings : cabac=1 / ref=4 / deblock=1:-3:-3 / analyse=0x3:0x133 / me=umh / subme=9 / psy_rd=1.0:0.0 / mixed_ref=1 / me_range=32 / chroma_me=1 / trellis=2 / 8x8dct=1 / cqm=0 / deadzone=21,11 / chroma_qp_offset=-4 / threads=6 / nr=0 / decimate=1 / mbaff=0 / bframes=10 / b_pyramid=1 / b_adapt=2 / b_bias=0 / direct=1 / wpredb=1 / keyint=250 / keyint_min=25 / scenecut=40 / rc=2pass / bitrate=12714 / ratetol=1.0 / qcomp=0.60 / qpmin=10 / qpmax=51 / qpstep=4 / cplxblur=20.0 / qblur=0.5 / ip_ratio=1.40 / pb_ratio=1.30 / aq=1:1.00
Language : English
Default : Yes
Forced : No

Audio #1
ID : 2
Format : AC-3
Format/Info : Audio Coding 3
Mode extension : CM (complete main)
Format settings, Endianness : Big
Codec ID : A_AC3
Duration : 2h 3mn
Bit rate mode : Constant
Bit rate : 192 Kbps
Channel count : 2 channels
Channel positions : Front: L R
Sampling rate : 48.0 KHz
Bit depth : 16 bits
Compression mode : Lossy
Stream size : 170 MiB (1%)
Title : 2.0 192 кб/с — багатоголосий закадровий | ТЕТ
Language : Ukrainian
Default : Yes
Forced : No

Audio #2
ID : 3
Format :
Format/Info : Digital Theater Systems
Mode : 16
Format settings, Endianness : Big
Codec ID : A_DTS
Duration : 2h 3mn
Bit rate mode : Constant
Bit rate : 1 510 Kbps
Channel count : 6 channels
Channel positions : Front: L C R, Side: L R, LFE
Sampling rate : 48.0 KHz
Bit depth : 24 bits
Compression mode : Lossy
Stream size : 1.31 GiB (10%)
Title : 5.1 1536 кб/с — оригінал
Language : English
Default : No
Forced : No

Text
ID : 4
Format : UTF-8
Codec ID : S_TEXT/UTF8
Codec ID/Info : UTF-8 Plain Text
Language : English
Default : No
Forced : No

Скріншоти


Цитата:
За запис укр. доріжки подяка OlegCena.
За зведення подяка karvai0.
За фільмографії подяка Віктору.
За постер подяка Дмитро митро.
HD-версія - ratbol.


Джерело: &


 Трекер:    Зареєстрований   

Завантажити / скачати фільм українською



відео для новачків



 Зареєстрований:   2013-09-02 12:30
 Розмір:   12.49 GB 
 Оцінка фільму:   9.3/10 (Голосів: 7)
   
Інші релізи
   Читець / The Reader (2008) 720p Ukr/Eng | Sub Eng ratbol  2 / 0   6.73 GB   2013-08-30 14:31 
   Читець / The Reader (2008) Ukr/Eng | Sub Eng karvai0  4 / 0   2.18 GB   2013-06-27 12:54 
okzdp 
Поважний учасник


З нами з: 27.05.09
Востаннє: 04.12.16
Повідомлень: 209

2016-02-09 21:08  
станьте на роздачу, будь ласка
Ваш часовий пояс: GMT + 2 Години

Нова тема   Відповісти