Завантажити та скачати торренти українською


Швидкість / Speed (1994) 1080p 2xUkr/Eng | Sub Eng

Нові коментарі

Нова тема   Відповісти
Автор Повідомлення
Anonymous 







2013-08-30 22:38  
Швидкість / Speed (1994) 1080p 2xUkr/Eng | Sub Eng



Альтернативні українізовані постери





Жанр: бойовик, трилер, пригодницький
Країна: США

2 Оскари, 5 премій каналу MTV, 2 премії Британської кіноакадемії та премія Сатурн

Кінокомпанія: Twentieth Century Fox Film Corporation
Режисер: Ян Де Бонт / Jan de Bont
Композитор: Марк Манчіна / Mark Mancina
Актори: Кіану Рівз / Keanu Reeves, Сандра Буллок /Sandra Bullock, Денніс Гоппер / Dennis Hopper, Джо Мортон /Joe Morton, Джефф Деніелс / Jeff Daniels, Алан Рак / Alan Ruck, Гленн Пламмер / Glenn Plummer, Річард Лайнбек / Richard Lineback та інші

Сюжет:
Уявіть дівчину, в якої на задньому склі автомобіля приклеєно наліпку зі знаком оклику, чайником і дивною туфлею з підписом «Поважай мене!». Тепер уявіть цю дівчину за кермом гігантського американського автобуса, який мчить по місту з величезною швидкістю у годину пік. Досить кумедне видовище, якщо не знати, що автобус заміновано і він може вибухнути, якщо стрілка спідометра опуститься нижче за вісімдесят кілометрів на годину.
Пасажири у паніці, події розгортаються із шаленою швидкістю, а часу до вибуху дедалі менше, На пошуки таємничого терориста, який уже довів серйозність своїх намірів, ледь не висадивши у повітря повний людей ліфт, кинуто елітні підрозділи поліції. Та час спливає, а вийти на слід злочинця так і не вдається.
У двобій із терористом вступає найкращий боєць спецзагону Джек Трейвен. Тепер від того, чи зможе він правильно розпорядитися секундами, що лишилися до вибуху, залежать життя десятків людей...


Усі нагороди та номінації


Оскар, 1995 рік
Переможець (2):
Кращий звук,
Кращий монтаж звуку


Номінації (1):
Кращий монтаж


Премія каналу MTV, 1995 рік
Переможець (5):
Краща жіноча роль (Сандра Буллок),
Найбажаніша жінка (Сандра Буллок),
Кращий лиходій (Денніс Гоппер),
Кращий екранний дует (Сандра Буллок, Кіану Рівз),
Краща екшн-сцена


Номінації (4):
Кращий фільм,
Краща чоловіча роль (Кіану Рівз),
Найбажаніший чоловік (Кіану Рівз),
Кращий поцілунок (Сандра Буллок, Кіану Рівз)


Швидкість / Speed (1994) 1080p 2xUkr/Eng | Sub Eng
Британська академія кіно та телевізійного мистецтва, 1995 рік
Переможець (2):
Кращий звук,
Кращий монтаж


Номінації (1):
Кращі візуальні ефекти


Сатурн, 1995 рік
Переможець (1):
Краща актриса (Сандра Буллок)


Номінації (2):
Кращий режисер (Ян де Бонт),
Кращий пригодницький фільм, бойовик або трилер


рейтинг MPAA: R - особам до 17 років обов'язкова присутність батьків або дорослого опікуна
Вікова категорія: 12+

Тривалість: 01:55:53
Якість: 1080p
Відео:
кодек:
розмір кадру: 1920x816
бітрейт: 8691 кб/с

Аудіо # 1:
мова: українська
переклад: багатоголосий закадровий
Ролі озвучили: Андрій Твердак (Кіану Рівз / Джек Трейвен), Олена Узлюк і Владислав Пупков (Денніс Гоппер / Говард Пейн)
кодек: 5.1
бітрейт: 384 кб/с

Аудіо # 2:
мова: українська
переклад: двоголосий закадровий
Ролі озвучили: Олег Лепенець і Людмила Ардельян
кодек: 5.1
бітрейт: 384 кб/с

Аудіо # 3:
мова: англійська
переклад: оригінал
кодек: 5.1
бітрейт: 448 кб/с

Субтитри:
мова: англійська
тип: програмні (м'які)
формат: *.srt

Збережено оригінальні розділи, як на Blu-ray.
MediaInfo
Код:
Complete name                            : Speed.1994..1080p.2xUkr.Eng.[sub.Eng].mkv
Format                                   : Matroska
Format version                           : Version 4 / Version 2
File size                                : 8.01 GiB
Duration                                 : 1h 55mn
Overall bit rate                         : 9 898 Kbps
Movie name                               : Швидкість / Speed (1994) [1080p]
Encoded date                             : UTC 2013-08-30 17:44:32
Writing application                      : mkvmerge v6.3.0 ('You can't stop me!') built on Jun 28 2013 20:09:41
Writing library                          : libebml v1.3.0 + libmatroska v1.4.0

Video
ID                                       : 1
Format                                   : AVC
Format/Info                              : Advanced Video Codec
Format profile                           : [email protected]
Format settings, CABAC                   : Yes
Format settings, ReFrames                : 5 frames
Codec ID                                 : V_MPEG4/ISO/AVC
Duration                                 : 1h 55mn
Bit rate                                 : 8 691 Kbps
Width                                    : 1 920 pixels
Height                                   : 816 pixels
Display aspect ratio                     : 2.35:1
Frame rate mode                          : Constant
Frame rate                               : 23.976 fps
Color space                              : YUV
Chroma subsampling                       : 4:2:0
Bit depth                                : 8 bits
Scan type                                : Progressive
Bits/(Pixel*Frame)                       : 0.231
Stream size                              : 6.87 GiB (86%)
Title                                    : Швидкість / Speed (1994) [1080p] [Boriy]
Writing library                          : core 125 r2208 d9d2288
Encoding settings                        : cabac=1 / ref=5 / deblock=1:-3:-2 / analyse=0x3:0x113 / me=umh / subme=10 / psy=1 / psy_rd=1.00:0.10 / mixed_ref=1 / me_range=32 / chroma_me=1 / trellis=2 / 8x8dct=1 / cqm=0 / deadzone=21,11 / fast_pskip=0 / chroma_qp_offset=-3 / threads=12 / lookahead_threads=2 / sliced_threads=0 / nr=0 / decimate=0 / interlaced=0 / bluray_compat=0 / constrained_intra=0 / bframes=5 / b_pyramid=2 / b_adapt=2 / b_bias=0 / direct=3 / weightb=1 / open_gop=0 / weightp=2 / keyint=240 / keyint_min=23 / scenecut=40 / intra_refresh=0 / rc_lookahead=60 / rc=2pass / mbtree=1 / bitrate=8691 / ratetol=1.0 / qcomp=0.60 / qpmin=0 / qpmax=69 / qpstep=4 / cplxblur=20.0 / qblur=0.5 / ip_ratio=1.40 / aq=1:1.00
Language                                 : English
Default                                  : Yes
Forced                                   : No

Audio #1
ID                                       : 2
Format                                   : AC-3
Format/Info                              : Audio Coding 3
Mode extension                           : CM (complete main)
Format settings, Endianness              : Big
Codec ID                                 : A_AC3
Duration                                 : 1h 55mn
Bit rate mode                            : Constant
Bit rate                                 : 384 Kbps
Channel(s)                               : 6 channels
Channel positions                        : Front: L C R, Side: L R, LFE
Sampling rate                            : 48.0 KHz
Bit depth                                : 16 bits
Compression mode                         : Lossy
Stream size                              : 318 MiB (4%)
Title                                    : MVO [1+1] 5.1 384 kbps [Hurtom-_oles]
Language                                 : Ukrainian
Default                                  : Yes
Forced                                   : No

Audio #2
ID                                       : 3
Format                                   : AC-3
Format/Info                              : Audio Coding 3
Mode extension                           : CM (complete main)
Format settings, Endianness              : Big
Codec ID                                 : A_AC3
Duration                                 : 1h 55mn
Bit rate mode                            : Constant
Bit rate                                 : 384 Kbps
Channel(s)                               : 6 channels
Channel positions                        : Front: L C R, Side: L R, LFE
Sampling rate                            : 48.0 KHz
Bit depth                                : 16 bits
Compression mode                         : Lossy
Stream size                              : 318 MiB (4%)
Title                                    : DVO [Novyj] 5.1 384 kbps [Hurtom-_oles]
Language                                 : Ukrainian
Default                                  : No
Forced                                   : No

Audio #3
ID                                       : 4
Format                                   : AC-3
Format/Info                              : Audio Coding 3
Mode extension                           : CM (complete main)
Format settings, Endianness              : Big
Codec ID                                 : A_AC3
Duration                                 : 1h 55mn
Bit rate mode                            : Constant
Bit rate                                 : 448 Kbps
Channel(s)                               : 6 channels
Channel positions                        : Front: L C R, Side: L R, LFE
Sampling rate                            : 48.0 KHz
Bit depth                                : 16 bits
Compression mode                         : Lossy
Stream size                              : 371 MiB (5%)
Title                                    : Original
Language                                 : English
Default                                  : No
Forced                                   : No

Text
ID                                       : 5
Format                                   : UTF-8
Codec ID                                 : S_TEXT/UTF8
Codec ID/Info                            : UTF-8 Plain Text
Title                                    : Eng full
Language                                 : English
Default                                  : No
Forced                                   : No

Menu
00:00:00.000                             : :Chapter 1
00:04:18.549                             : :Chapter 2
00:06:03.321                             : :Chapter 3
00:08:26.088                             : :Chapter 4
00:11:16.884                             : :Chapter 5
00:15:22.713                             : :Chapter 6
00:17:37.222                             : :Chapter 7
00:23:20.816                             : :Chapter 8
00:26:42.767                             : :Chapter 9
00:31:00.775                             : :Chapter 10
00:35:04.519                             : :Chapter 11
00:40:25.131                             : :Chapter 12
00:44:34.630                             : :Chapter 13
00:48:45.505                             : :Chapter 14
00:53:08.185                             : :Chapter 15
00:55:46.593                             : :Chapter 16
00:58:50.818                             : :Chapter 17
01:02:18.443                             : :Chapter 18
01:07:37.386                             : :Chapter 19
01:08:53.546                             : :Chapter 20
01:11:50.514                             : :Chapter 21
01:15:15.844                             : :Chapter 22
01:15:39.535                             : :Chapter 23
01:19:32.517                             : :Chapter 24
01:23:26.584                             : :Chapter 25
01:27:03.635                             : :Chapter 26
01:32:56.195                             : :Chapter 27
01:37:05.027                             : :Chapter 28
01:40:27.229                             : :Chapter 29
01:42:18.882                             : :Chapter 30
01:46:04.775                             : :Chapter 31
01:50:05.265                             : :Chapter 32
01:55:52.946                             : :Chapter 33






Джерела та подяки: ріп відео, оригінальні звук та субтитри - boriy (рутор); українські доріжки - _oles - зведення, ua2004, Romario_O, Merdiff, dvorsky та xslim - запис з ТБ; українські постери - thefir, hellforces (всі - Гуртом)

Особиста оцінка: 9 - рекомендую всім

ЗАЛИШАЙТЕСЬ ЯКОМОГА ДОВШЕ НА РОЗДАЧІ!
ЗАВАНТАЖИВ САМ - ДАЙ ЗАВАНТАЖИТИ ІНШИМ


Срібний реліз (на рейтинг впливає 50% завантаженого)
 Трекер:    Зареєстрований   

Завантажити / скачати фільм українською



відео для новачків



 Зареєстрований:   2013-08-30 22:38
 Розмір:   8.01 GB 
 Оцінка фільму:   5.4/10 (Голосів: 21)
   
Інші релізи
   Швидкість / Speed (1994) [MP4, 640x] apvAltisimo  0 / 0   1005 MB   2016-10-30 15:32 
Anonymous 







2013-08-31 23:16  
Класна пісня з саундтреку до фільму (звучить у титрах):
Billy Idol - Speed

boroznaya 
VIP


З нами з: 02.11.12
Востаннє: 09.12.16
Повідомлень: 1885

2015-12-21 18:05  
Один з улюблених фільмів дитинства!
Ваш часовий пояс: GMT + 2 Години

Нова тема   Відповісти