Завантажити та скачати торренти українською


Скупий / L'avare (1980) 720p Ukr/Fre

Нові коментарі

Нова тема   Відповісти
Автор Повідомлення
Anonymous 







2013-08-28 21:37  
Скупий / L'avare (1980) 720p Ukr/Fre



Жанр: комедія
Країна: Франція



Кінокомпанія: Les Films Christian Fechner
Режисер: Луї Де Фюнес / Louis de Funes, Жан Жиро / Jean Girault
Актори: Луї Де Фюнес / Louis de Funes, Клод Жансак / Claude Gensac, Мішель Галабрю / Michel Galabru, Франк Давід / Frank David, Ерве Беллон / Hervé Bellon, Жорж Одубер / Georges Audoubert, Гі Гроссо / Guy Grosso, Мішель Модо / Michel Modo, Анрі Жене / Henri Génès, Макс Монтавон / Max Montavon, Мішлін Борде / Micheline Bourday, Мадлен Барбюле / Madeleine Barbulée, Анна Кодрі / Anne Caudry, Клер Дюпре / Claire Dupray та інші

Сюжет:
Фільм знятий за мотивами однойменної п'єси Мольєра (Жана Батиста Поклена) «Скупий».
Гарпагон — людина достатньо багата, але відома хворобливою скупістю. Свій капітал у вигляді скрині з золотими монетами він закопав у своєму саду і суворо слідкує за тим, щоби його скарб не був знайдений кимось із домочадців. Від його скупості страждають не тільки його слуги, які вимушені носити лахміття і працювати за двох, але й його діти. Свою доньку Елізу він збирається видати заміж за старого багатія Ансельма тільки через те, що він готовий відмовитись від приданого. Для сина Клеанта він підшукав в дружини немолоду вдову. Тим часом серця молодих людей вже належать іншим.


Вікова категорія: 0+

Тривалість: 01:56:49
Якість: 720p
Відео:
кодек:
розмір кадру: 1280x720
бітрейт: 4800 кб/с

Аудіо # 1:
мова: українська
переклад: двоголосий закадровий
Ролі озвучили: Олег Лепенець та Ніна Касторф
кодек: 2.0
бітрейт: 192 кб/с

Аудіо # 2:
мова: французька
переклад: оригінал
кодек: 2.0
бітрейт: 192 кб/с
MediaInfo
General
Unique ID : 174873448257539304683078946963512765721 (0x838F66AB10A38D59993E67812D122D19)
Complete name : L'avare.1980..720p.Ukr.Fre.mkv
Format : Matroska
Format version : Version 4 / Version 2
File size : 4.23 GiB
Duration : 1h 56mn
Overall bit rate : 5 186 Kbps
Movie name : Скупий / L'avare / Скупой (1980)
Encoded date : UTC 2013-08-28 17:53:32
Writing application : mkvmerge v6.3.0 ('You can't stop me!') built on Jun 28 2013 20:09:41
Writing library : libebml v1.3.0 + libmatroska v1.4.0

Video
ID : 1
Format : AVC
Format/Info : Advanced Video Codec
Format profile : [email protected]
Format settings, CABAC : Yes
Format settings, ReFrames : 2 frames
Codec ID : V_MPEG4/ISO/AVC
Duration : 1h 56mn
Bit rate : 4 800 Kbps
Width : 1 280 pixels
Height : 720 pixels
Display aspect ratio : 16:9
Frame rate mode : Constant
Frame rate : 25.000 fps
Color space : YUV
Chroma subsampling : 4:2:0
Bit depth : 8 bits
Scan type : Progressive
Bits/(Pixel*Frame) : 0.208
Stream size : 3.83 GiB (91%)
Title : Скупий / L'avare / Скупой (1980) [kinozal.tv-Знаменосец]
Writing library : core 130 r2273
Encoding settings : cabac=1 / ref=2 / deblock=1:0:0 / analyse=0x1:0x131 / me=hex / subme=7 / psy=1 / psy_rd=1.00:0.00 / mixed_ref=0 / me_range=16 / chroma_me=1 / trellis=1 / 8x8dct=0 / cqm=0 / deadzone=21,11 / fast_pskip=1 / chroma_qp_offset=-2 / threads=12 / lookahead_threads=2 / sliced_threads=0 / nr=0 / decimate=1 / interlaced=0 / bluray_compat=0 / constrained_intra=0 / bframes=3 / b_pyramid=0 / b_adapt=1 / b_bias=0 / direct=3 / weightb=1 / open_gop=0 / weightp=2 / keyint=250 / keyint_min=25 / scenecut=40 / intra_refresh=0 / rc_lookahead=40 / rc=2pass / mbtree=1 / bitrate=4800 / ratetol=1.0 / qcomp=0.60 / qpmin=10 / qpmax=69 / qpstep=4 / cplxblur=20.0 / qblur=0.5 / vbv_maxrate=24000 / vbv_bufsize=24000 / nal_hrd=none / ip_ratio=1.40 / aq=1:1.00
Language : French
Default : Yes
Forced : No

Audio #1
ID : 2
Format : AC-3
Format/Info : Audio Coding 3
Mode extension : CM (complete main)
Format settings, Endianness : Big
Codec ID : A_AC3
Duration : 1h 56mn
Bit rate mode : Constant
Bit rate : 192 Kbps
Channel(s) : 2 channels
Channel positions : Front: L R
Sampling rate : 48.0 KHz
Bit depth : 16 bits
Compression mode : Lossy
Delay relative to video : -40ms
Stream size : 160 MiB (4%)
Title : DVO [2+2] 2.0 192 kbps [Hurtom-_oles]
Language : Ukrainian
Default : Yes
Forced : No

Audio #2
ID : 3
Format : AC-3
Format/Info : Audio Coding 3
Mode extension : CM (complete main)
Format settings, Endianness : Big
Codec ID : A_AC3
Duration : 1h 56mn
Bit rate mode : Constant
Bit rate : 192 Kbps
Channel(s) : 2 channels
Channel positions : Front: L R
Sampling rate : 48.0 KHz
Bit depth : 16 bits
Compression mode : Lossy
Delay relative to video : -40ms
Stream size : 160 MiB (4%)
Title : Original
Language : French
Default : No
Forced : No


Джерела та подяки: ріп відео - Знамєносєц (кінозал.тв); українська доріжка - _oles - зведення, sando7 - запис з ТБ; оригінальна доріжка - _oles (всі - Гуртом).

ЗАЛИШАЙТЕСЬ ЯКОМОГА ДОВШЕ НА РОЗДАЧІ!

СКАЧАВ САМ - ДАЙ СКАЧАТИ ІНШИМ


Срібний реліз (на рейтинг впливає 50% завантаженого)
 Трекер:    Зареєстрований   

Завантажити / скачати фільм українською



відео для новачків



 Зареєстрований:   2013-08-28 21:37
 Розмір:   4.23 GB 
 Оцінка фільму:   5.3/10 (Голосів: 19)
   
Інші релізи
   Скупий / L'avare (1980) Ukr/Fra _oles  1 / 1   1.61 GB   2012-08-23 15:53 
Ваш часовий пояс: GMT + 2 Години

Нова тема   Відповісти