Завантажити та скачати торренти українською


Дикі штучки [Розширена версія] / Wild Things [UNRATED] (1998) 1080p Ukr/Eng | Sub Eng

Нові коментарі

Нова тема   Відповісти
Автор Повідомлення
Anonymous 







2013-08-28 18:00  
Дикі штучки [Розширена версія] / Wild Things [UNRATED] (1998) 1080p Ukr/Eng | Sub Eng



"Її краса вимагає жертв"

"Помста ще ніколи не була такою солодкою"


Альтернативний українізований постер


Жанр: еротичний трилер, кримінальний, детектив
Країна: США



Кінокомпанія: Mandalay Entertainment
Режисер: Джон МакНоутон / John McNaughton
Актори: Кевін Бейкон / Kevin Bacon, Метт Ділон / Matt Dillon, Нів Кемпбелл / Neve Campbell, Тереза Расселл / Theresa Russell, Деніз Річардс / Denise Richards, Білл Мюррей / Bill Murray та інші

Сюжет: (від Delight`):
"Дикі штучки"- еротичний трилер. Одна таємниця розкривається за іншою, у міру того, як життя чотирьох хитрих головних героїв переплітаються і міняються у дивному лабіринті з правди і неправди. Вийде з нього тільки найсильніший.

(від imonko):
Вродлива старшокласниця Келі Ван Райан звинувачує свого вчителя Сема Ломбардо у згвалтуванні. Мабуть, вона так вчинила, бо він не піддався на її чари. Через кілька днів у цьому ж злочині, який було вчинено рік тому, Сема звинувачує інша школярка Сюзі Толлер. Розслідування ведуть поліцейські Рей Дюкетт і Глорія Перес. Вони знають, що Сем колись мешкав із матір'ю Келі, заможною і могутньою Сандрою Ван Райан. Ломбардо звертається по допомогу до адвоката Кена Боудена, і той на суді викриває Сюзі...

(переклад з кінопоіска):
Сімнадцятирічна Келлі закохується у свого вчителя Сема. Вона використовує всі можливі способи, щоб привернути його увагу, але безрезультатно. А коли дівчина не отримує бажаного, вона починає мстити - звинувачує Сема у зґвалтуванні. Доказів явно недостатньо, доки на допомогу Келлі не приходить її подруга, яка готова свідчити. Але незабаром дівчина розуміє, що є лише пішаком у нечесній грі ...
Цікаві факти
• Роберту Дауні була запропонована роль Сема Ломбардо, але він її відхилив.
• Режисер Джон МакНотон сказав, що він видалив сцену, в якій Метт Діллон і Кевін Бейкон миються разом, оскільки не захотів, щоб у картині звучали гомосексуальні нотки.
• В інтерв'ю Бейкон сказав, що в його контракті не було пункту про оголену натуру, а оскільки він був продюсером фільму, як актор міг подати на самого себе до суду.
• Перед тим, як знімати сцену на річці, член групи, який працював над освітленням, перевіряв прожектори і помітив труп людини. Прибула поліція і відтягнула його до берега, щоб він не потрапляв в об’єктив. Коли сцена була знята, поліцейські витягли труп з річки.
рейтинг MPAA: R - особам до 17 років обов'язкова присутність батьків або дорослого опікуна
Вікова категорія: 18+

Тривалість: 01:54:46 - Відмінності Театральної та Розширеної версій
Якість: 1080p
Відео:
кодек:
розмір кадру: 1920x800
бітрейт: 9200 кб/с

Аудіо # 1:
мова: українська - Так Треба Продакшн на замовлення , запис з
переклад: багатоголосий закадровий
Ролі озвучили: Олег Стальчук (Білл Мюррей / Кен Боуден), Анатолій Пашнін, Наталя Задніпровська і Олена Яблучна
кодек: 2.0
бітрейт: 192 кб/с

Аудіо # 2:
мова: англійська
переклад: оригінал
кодек: 5.1
бітрейт: 448 кб/с

Субтитри # 1:
мова: українська (форсовані, на неозвучені місця розширеної версії, загалом не більше 5 хв.)
тип: програмні (м'які)
формат: *.srt

Субтитри # 2:
мова: англійська (повні)
тип: програмні (м'які)
формат: *.srt

Збережено оригінальні розділи, як на Blu-ray.
MediaInfo та
[info]: frame I:1007 Avg QP:15.94 size:188666
[info]: frame P:34538 Avg QP:18.08 size: 86249
[info]: frame B:129575 Avg QP:20.32 size: 36646
[info]: consecutive B-frames: 1.3% 2.6% 4.9% 25.2% 15.7% 37.0% 6.2% 5.4% 1.0% 0.7%
[info]: encoded 165120 frames, 4.88 fps, 9196.95 kb/s, duration 9:23:41.88
=====================================================================================
General
Unique ID : 246040719714313751535665573851257573760 (0xB919B80E0041D75F9B26B111C25B1180)
Complete name : Wild.Things.[UNRATED].1998..1080p.Ukr.Eng.[sub.Eng].mkv
Format : Matroska
Format version : Version 4 / Version 2
File size : 7.89 GiB
Duration : 1h 54mn
Overall bit rate : 9 839 Kbps
Movie name : Дикі штучки / Wild Things [UNRATED] / Дикость (1998)
Encoded date : UTC 2013-08-28 09:58:32
Writing application : mkvmerge v6.3.0 ('You can't stop me!') built on Jun 28 2013 20:09:41
Writing library : libebml v1.3.0 + libmatroska v1.4.0

Video
ID : 1
Format : AVC
Format/Info : Advanced Video Codec
Format profile : [email protected]
Format settings, CABAC : Yes
Format settings, ReFrames : 5 frames
Codec ID : V_MPEG4/ISO/AVC
Duration : 1h 54mn
Bit rate : 9 200 Kbps
Width : 1 920 pixels
Height : 800 pixels
Display aspect ratio : 2.40:1
Frame rate mode : Constant
Frame rate : 23.976 fps
Color space : YUV
Chroma subsampling : 4:2:0
Bit depth : 8 bits
Scan type : Progressive
Bits/(Pixel*Frame) : 0.250
Stream size : 7.22 GiB (92%)
Title : Дикі штучки / Wild Things [UNRATED] / Дикость (1998), [Freeisland-delia]
Writing library : core 133 r2334kMod a3ac64b
Encoding settings : cabac=1 / ref=5 / deblock=1:-3:-3 / analyse=0x3:0x113 / me=umh / subme=11 / psy=1 / fade_compensate=0.00 / psy_rd=0.95:0.05 / mixed_ref=1 / me_range=48 / chroma_me=1 / trellis=2 / 8x8dct=1 / cqm=0 / deadzone=21,11 / fast_pskip=0 / chroma_qp_offset=-3 / threads=6 / lookahead_threads=1 / sliced_threads=0 / nr=0 / decimate=1 / interlaced=0 / bluray_compat=0 / constrained_intra=0 / bframes=9 / b_pyramid=2 / b_adapt=2 / b_bias=0 / direct=3 / weightb=1 / open_gop=0 / weightp=2 / keyint=250 / keyint_min=23 / scenecut=40 / intra_refresh=0 / rc_lookahead=40 / rc=2pass / mbtree=0 / bitrate=9200 / ratetol=1.0 / qcomp=0.75 / qpmin=0 / qpmax=69 / qpstep=4 / cplxblur=20.0 / qblur=0.5 / vbv_maxrate=62500 / vbv_bufsize=78125 / nal_hrd=none / ip_ratio=1.40 / pb_ratio=1.30 / aq=1:0.80
Language : English
Default : Yes
Forced : No
Matrix coefficients : BT.709

Audio #1
ID : 2
Format : AC-3
Format/Info : Audio Coding 3
Mode extension : CM (complete main)
Format settings, Endianness : Big
Codec ID : A_AC3
Duration : 1h 54mn
Bit rate mode : Constant
Bit rate : 192 Kbps
Channel(s) : 2 channels
Channel positions : Front: L R
Sampling rate : 48.0 KHz
Bit depth : 16 bits
Compression mode : Lossy
Stream size : 158 MiB (2%)
Title : MVO [TakTrebaProduction-TRK Ukraina] 2.0 192 kbps [Hurtom-Delight`]
Language : Ukrainian
Default : Yes
Forced : No

Audio #2
ID : 3
Format : AC-3
Format/Info : Audio Coding 3
Mode extension : CM (complete main)
Format settings, Endianness : Big
Codec ID : A_AC3
Duration : 1h 54mn
Bit rate mode : Constant
Bit rate : 448 Kbps
Channel(s) : 6 channels
Channel positions : Front: L C R, Side: L R, LFE
Sampling rate : 48.0 KHz
Bit depth : 16 bits
Compression mode : Lossy
Stream size : 368 MiB (5%)
Title : Original
Language : English
Default : No
Forced : No

Text #1
ID : 4
Format : UTF-8
Codec ID : S_TEXT/UTF8
Codec ID/Info : UTF-8 Plain Text
Title : Ukr forced
Language : Ukrainian
Default : Yes
Forced : Yes

Text #2
ID : 5
Format : UTF-8
Codec ID : S_TEXT/UTF8
Codec ID/Info : UTF-8 Plain Text
Title : Eng full
Language : English
Default : No
Forced : No

Menu
00:00:00.000 : en:00:00:00.000
00:03:55.318 : en:00:03:55.318
00:13:35.023 : en:00:13:35.023
00:19:46.352 : en:00:19:46.352
00:26:08.650 : en:00:26:08.650
00:32:33.785 : en:00:32:33.785
00:40:53.326 : en:00:40:53.326
00:51:34.300 : en:00:51:34.300
00:59:59.971 : en:00:59:59.971
01:06:33.364 : en:01:06:33.364
01:13:38.956 : en:01:13:38.956
01:20:09.304 : en:01:20:09.304
01:28:21.254 : en:01:28:21.254
01:31:48.837 : en:01:31:48.837
01:34:44.929 : en:01:34:44.929
01:42:09.790 : en:01:42:09.790


Джерела та подяки: ріп відео, оригінальні звук та субтитри - delia (FREEISLAND); українська доріжка - Delight` - зведення, xslim - запис з ТБ; українські форсовані субтитри - LX340; український постер - d1mma (всі - Гуртом).

ЗАЛИШАЙТЕСЬ ЯКОМОГА ДОВШЕ НА РОЗДАЧІ!

СКАЧАВ САМ - ДАЙ СКАЧАТИ ІНШИМ


Срібний реліз (на рейтинг впливає 50% завантаженого)
 Трекер:    Зареєстрований   

Завантажити / скачати фільм українською



відео для новачків



 Зареєстрований:   2013-08-28 18:00
 Розмір:   7.89 GB 
 Оцінка фільму:   4.7/10 (Голосів: 17)
   
Інші релізи
Косячок справжній 
VIP


З нами з: 29.02.12
Востаннє: 10.12.16
Повідомлень: 659

2015-03-21 22:13  
Яка мила стрічка.
Ваш часовий пояс: GMT + 2 Години

Нова тема   Відповісти