Завантажити та скачати торренти українською


Роззява / Le corniaud (1965) 720p Ukr/Fre

Нові коментарі

Нова тема   Відповісти
Автор Повідомлення
Anonymous 







2013-08-27 22:56  
Роззява / Le corniaud (1965) 720p Ukr/Fre



Альтернативні постери





Жанр: комедія, кримінальний
Країна: Франція, Італія



Кінокомпанія: Les Films Corona, Explorer Film '58
Режисер: Жерар Урі / Gérard Oury
Актори: Бурвіль / Bourvil, Луї Де Фюнес / Louis de Funès, Венантіно Венантіні / Venantino Venantini, Генрі Женес / Henri Génès, Ландо Будзанка / Lando Buzzanca, Жак Ейзер / Jacques Eyser, Анрі Вірложе / Henri Virlojeux, Жан Меєр / Jean Meyer, Джек Арі / Jack Ary, Жан-Марі Бон / Jean-Marie Bon та інші

Сюжет:
Антуан Марешаль, в якості компенсації за розбиту машину, одержує від багатого промисловця Леопольда Сарояна розкішний кабріолет, обладнаний телефоном і стереосистемою. У нестямі від щастя, він продовжує свою подорож до Італії.

Проте безкоштовний сир буває тільки в мишоловці. Марешаль не підозрює, що його використовують гангстери на чолі з Сарояном. Дарований автомобіль напханий золотом і наркотиками, а на хвості у Марешаля тепер сидять дві банди контрабандистів - суперників...
Цікаві факти про фільм
Фабула фільму була використана у радянському фільмі «Діамантова рука».
У свою чергу, золоті бампери нагадують про гирі з роману «Золоте теля». Тим більше, що у фільмі їх весь час пиляють.

При повторному випуску в радянський кінопрокат в 1984 році фільм залучив аудиторію в кількості 21,1 млн. чоловік при 1007 копіях.

Загальна відвідуваність в радянському кінопрокаті склала 52 млн. глядачів.
Вікова категорія: 0+

Тривалість: 01:50:29
Якість: 720p
Відео:
кодек:
розмір кадру: 1280x544
бітрейт: 6747 кб/с

Аудіо # 1:
мова: українська
переклад: двоголосий закадровий
кодек: 2.0
бітрейт: 192 кб/с

Аудіо # 2:
мова: французька
переклад: оригінал
кодек: 2.0
бітрейт: 1510 кб/с

Збережено оригінальні розділи, як на Blu-ray.
MediaInfo
General
Unique ID : 211678838007275671309118844984324744679 (0x9F3FDC7C43CB67E5B588E1C58E1765E7)
Complete name : Le.Corniaud.1965.720p.Ukr.Fre.mkv
Format : Matroska
Format version : Version 4 / Version 2
File size : 6.67 GiB
Duration : 1h 50mn
Overall bit rate : 8 643 Kbps
Movie name : Роззява / Le corniaud / Разиня (1965)
Encoded date : UTC 2013-08-27 17:43:25
Writing application : mkvmerge v6.3.0 ('You can't stop me!') built on Jun 28 2013 20:09:41
Writing library : libebml v1.3.0 + libmatroska v1.4.0

Video
ID : 1
Format : AVC
Format/Info : Advanced Video Codec
Format profile : [email protected]
Format settings, CABAC : Yes
Format settings, ReFrames : 9 frames
Codec ID : V_MPEG4/ISO/AVC
Duration : 1h 50mn
Bit rate : 6 770 Kbps
Width : 1 280 pixels
Height : 544 pixels
Display aspect ratio : 2.35:1
Frame rate mode : Constant
Frame rate : 24.000 fps
Color space : YUV
Chroma subsampling : 4:2:0
Bit depth : 8 bits
Scan type : Progressive
Bits/(Pixel*Frame) : 0.405
Stream size : 5.23 GiB (78%)
Title : Роззява / Le corniaud / Разиня (1965) [HDCLUB]
Writing library : core 77 r1292 e381f6d
Encoding settings : cabac=1 / ref=9 / deblock=1:-3:-3 / analyse=0x3:0x113 / me=umh / subme=9 / psy=1 / psy_rd=1.0:0.0 / mixed_ref=1 / me_range=24 / chroma_me=1 / trellis=2 / 8x8dct=1 / cqm=0 / deadzone=21,11 / chroma_qp_offset=-2 / threads=3 / nr=0 / decimate=1 / mbaff=0 / constrained_intra=0 / bframes=7 / b_pyramid=1 / b_adapt=2 / b_bias=0 / direct=1 / wpredb=1 / keyint=250 / keyint_min=25 / scenecut=40 / rc=crf / mbtree=0 / crf=18.0 / qcomp=0.60 / qpmin=10 / qpmax=51 / qpstep=4 / ip_ratio=1.40 / pb_ratio=1.30 / aq=1:0.80
Language : English
Default : Yes
Forced : No

Audio #1
ID : 2
Format : AC-3
Format/Info : Audio Coding 3
Mode extension : CM (complete main)
Format settings, Endianness : Big
Codec ID : A_AC3
Duration : 1h 50mn
Bit rate mode : Constant
Bit rate : 192 Kbps
Channel(s) : 2 channels
Channel positions : Front: L R
Sampling rate : 48.0 KHz
Bit depth : 16 bits
Compression mode : Lossy
Stream size : 152 MiB (2%)
Title : DVO [2+2] 2.0 192 kbps [Hurtom-igrik09]
Language : Ukrainian
Default : Yes
Forced : No

Audio #2
ID : 3
Format :
Format/Info : Digital Theater Systems
Mode : 16
Format settings, Endianness : Big
Codec ID : A_DTS
Duration : 1h 50mn
Bit rate mode : Constant
Bit rate : 1 509 Kbps
Channel(s) : 2 channels
Channel positions : Front: L R
Sampling rate : 48.0 KHz
Bit depth : 24 bits
Compression mode : Lossy
Stream size : 1.16 GiB (17%)
Title : Original 2.0 1536 kbps
Language : French
Default : No
Forced : No

Menu
00:00:00.000 : :00:00:00.000
00:07:49.167 : :00:07:49.167
00:18:47.292 : :00:18:47.292
00:26:17.500 : :00:26:17.500
00:36:37.458 : :00:36:37.458
00:44:49.625 : :00:44:49.625
00:56:10.625 : :00:56:10.625
01:03:40.625 : :01:03:40.625
01:11:54.708 : :01:11:54.708
01:21:25.292 : :01:21:25.292
01:28:11.292 : :01:28:11.292
01:39:24.208 : :01:39:24.208


Джерела та подяки: ріп відео, оригінальний звук - HDCLUB; українська доріжка - igrik09 - зведення, sando7 - запис з ТБ (обоє - Гуртом).

Особиста оцінка: 8 - мені сподобалося

ЗАЛИШАЙТЕСЬ ЯКОМОГА ДОВШЕ НА РОЗДАЧІ!

СКАЧАВ САМ - ДАЙ СКАЧАТИ ІНШИМ


Срібний реліз (на рейтинг впливає 50% завантаженого)
 Трекер:    Зареєстрований   

Завантажити / скачати фільм українською



відео для новачків



 Зареєстрований:   2013-08-27 22:56
 Розмір:   6.67 GB 
 Оцінка фільму:   5.3/10 (Голосів: 19)
   
Інші релізи
   Роззява / Le corniaud (1965) AVC Ukr/Fra igrik09  4 / 0   2.03 GB   2012-08-22 21:42 
   Роззява / Le corniaud (1965) Ukr/Fra igrik09  2 / 0   2.03 GB   2012-08-21 16:36 
Ваш часовий пояс: GMT + 2 Години

Нова тема   Відповісти