Завантажити та скачати торренти українською


Ейс Вентура. Дилогія / Ace Ventura. Dilogy (1994-1995) 720p Ukr/Eng | Sub Eng

Нові коментарі

Нова тема   Відповісти
Автор Повідомлення
4erkov 
Відео Гуртом - запис з ТБ
Відео Гуртом - запис з ТБ


З нами з: 09.10.10
Востаннє: 08.12.16
Повідомлень: 1846

2013-08-27 17:28  
Ейс Вентура. Дилогія / Ace Ventura. Dilogy (1994-1995) 720p Ukr/Eng | Sub Eng

Ейс Вентура. Дилогія / Ace Ventura. Dilogy (1994-1995) 720p Ukr/Eng | Sub Eng

Ейс Вентура: детектив з розшуку домашніх тварин / Ace Ventura: Pet Detective (1994) 720p Ukr/Eng
Ейс Вентура: детектив з розшуку домашніх тварин / Ace Ventura: Pet Detective (1994) 720p Ukr/Eng

Ейс Вентура. Дилогія / Ace Ventura. Dilogy (1994-1995) 720p Ukr/Eng | Sub Eng

Жанр: комедія
Країна: США

Кіностудія / кінокомпанія: Morgan Creek Productions, Warner Bros.
Режисер: Том Шедьяк
Актори: Джим Керрі/Jim Carrey, Шон Янг/Sean Young, Кортні Кокс/Courteney Cox, Тон Лок/Tone Loc, Ден Маріно/Dan Marino, Нобл Віллінгем/Noble Willingham
Сюжет:
Він - кращий серед собі подібних. Насправді, він єдиний у своєму роді! Він - Ейс Вентура, детектив, що розшукує домашніх тварин. Джим Керрі в ролі невтомного диво-сищика зустрічається ніс до носа з кровожерною акулою, шокує публіку ексцентричними витівками і проходить через вогонь, воду і мідні труби, щоб виконати чергове завдання! Будьте упевнені, де б він не знаходився - під прикриттям, під землею або під водою - він завжди знайде вашу пропажу!

Тривалість: 01:26:00
Якість: 720p [ріп від HD4U]
Відео:
кодек: H. 264
розмір кадру: 1280 х 720
бітрейт: 5761 кб/с

Аудіо:
мова: українська
переклад: двоголосий закадровий
кодек: 2.0
бітрейт: 192 кб/с

Аудіо # 2:
мова: англійська
переклад: оригінал
кодек: 5.1
бітрейт: 1510 кб/с
Перекладено та озвучено студією:
Ролі озвучили: Євген Пашин та Ніна Касторф.
Скріншоти

Media-Info
Код:
General
Unique ID                                : 202511929714341466820255259637531137112 (0x985A61031484A94C9862A3FBE519D458)
Format                                   : Matroska
Format version                           : Version 4 / Version 2
File size                                : 4.48 GiB
Duration                                 : 1h 26mn
Overall bit rate                         : 7 463 Kbps
Movie name                               : Ace Ventura: Pet Detective (1994) (720p) Ukr.Eng [Hurtom]
Encoded date                             : UTC 2010-02-22 21:41:31
Writing application                      : mkvmerge v5.9.0 ('On The Loose') built on Dec  9 2012 15:37:01
Writing library                          : libebml v1.3.0 + libmatroska v1.4.0

Video
ID                                       : 1
Format                                   : AVC
Format/Info                              : Advanced Video Codec
Format profile                           : [email protected]
Format settings, CABAC                   : Yes
Format settings, ReFrames                : 5 frames
Codec ID                                 : V_MPEG4/ISO/AVC
Duration                                 : 1h 26mn
Bit rate                                 : 5 761 Kbps
Width                                    : 1 280 pixels
Height                                   : 720 pixels
Display aspect ratio                     : 16:9
Frame rate mode                          : Constant
Frame rate                               : 23.976 fps
Color space                              : YUV
Chroma subsampling                       : 4:2:0
Bit depth                                : 8 bits
Scan type                                : Progressive
Bits/(Pixel*Frame)                       : 0.261
Stream size                              : 3.37 GiB (75%)
Title                                    :
Writing library                          : core 133 r2334 a3ac64b
Encoding settings                        : cabac=1 / ref=5 / deblock=1:0:0 / analyse=0x3:0x133 / me=umh / subme=7 / psy=1 / psy_rd=1.00:0.00 / mixed_ref=1 / me_range=16 / chroma_me=1 / trellis=1 / 8x8dct=1 / cqm=0 / deadzone=21,11 / fast_pskip=0 / chroma_qp_offset=-2 / threads=18 / lookahead_threads=3 / sliced_threads=0 / nr=0 / decimate=1 / interlaced=0 / bluray_compat=0 / constrained_intra=0 / bframes=3 / b_pyramid=2 / b_adapt=1 / b_bias=0 / direct=1 / weightb=1 / open_gop=0 / weightp=2 / keyint=250 / keyint_min=23 / scenecut=40 / intra_refresh=0 / rc_lookahead=40 / rc=2pass / mbtree=1 / bitrate=5761 / ratetol=1.0 / qcomp=0.60 / qpmin=0 / qpmax=69 / qpstep=4 / cplxblur=20.0 / qblur=0.5 / ip_ratio=1.40 / aq=1:1.00
Language                                 : English
Default                                  : Yes
Forced                                   : No

Audio #1
ID                                       : 2
Format                                   : AC-3
Format/Info                              : Audio Coding 3
Mode extension                           : CM (complete main)
Format settings, Endianness              : Big
Codec ID                                 : A_AC3
Duration                                 : 1h 26mn
Bit rate mode                            : Constant
Bit rate                                 : 192 Kbps
Channel(s)                               : 2 channels
Channel positions                        : Front: L R
Sampling rate                            : 48.0 KHz
Bit depth                                : 16 bits
Compression mode                         : Lossy
Stream size                              : 118 MiB (3%)
Title                                    : DVO (Новий канал)
Language                                 : Ukrainian
Default                                  : Yes
Forced                                   : No

Audio #2
ID                                       : 3
Format                                   :
Format/Info                              : Digital Theater Systems
Mode                                     : 16
Format settings, Endianness              : Big
Codec ID                                 : A_DTS
Duration                                 : 1h 26mn
Bit rate mode                            : Constant
Bit rate                                 : 1 509 Kbps
Channel(s)                               : 6 channels
Channel positions                        : Front: L C R, Side: L R, LFE
Sampling rate                            : 48.0 KHz
Bit depth                                : 24 bits
Compression mode                         : Lossy
Stream size                              : 928 MiB (20%)
Title                                    : Original
Language                                 : English
Default                                  : No
Forced                                   : No

Menu
00:00:00.000                             : en:00:00:00.000
00:03:39.010                             : en:00:03:39.010
00:05:47.847                             : en:00:05:47.847
00:06:43.320                             : en:00:06:43.320
00:07:49.052                             : en:00:07:49.052
00:11:01.202                             : en:00:11:01.202
00:13:28.641                             : en:00:13:28.641
00:15:01.526                             : en:00:15:01.526
00:18:12.925                             : en:00:18:12.925
00:22:55.416                             : en:00:22:55.416
00:25:42.291                             : en:00:25:42.291
00:28:20.073                             : en:00:28:20.073
00:33:16.411                             : en:00:33:16.411
00:36:44.202                             : en:00:36:44.202
00:38:35.146                             : en:00:38:35.146
00:42:58.117                             : en:00:42:58.117
00:46:30.454                             : en:00:46:30.454
00:47:49.158                             : en:00:47:49.158
00:52:26.894                             : en:00:52:26.894
00:54:37.483                             : en:00:54:37.483
00:58:17.452                             : en:00:58:17.452
01:00:40.303                             : en:01:00:40.303
01:04:04.591                             : en:01:04:04.591
01:07:41.891                             : en:01:07:41.891
01:10:39.527                             : en:01:10:39.527
01:12:20.795                             : en:01:12:20.795
01:14:09.111                             : en:01:14:09.111
01:15:41.078                             : en:01:15:41.078
01:19:33.310                             : en:01:19:33.310
01:21:59.540                             : en:01:21:59.540

Джерело:
Особиста оцінка: 8/10.
Ейс Вентура 2: поклик природи / Ace Ventura: When Nature Calls (1995) 720p Ukr/Eng | Sub Eng
Ейс Вентура 2: поклик природи / Ace Ventura: When Nature Calls (1995) 720p Ukr/Eng | Sub Eng

Ейс Вентура. Дилогія / Ace Ventura. Dilogy (1994-1995) 720p Ukr/Eng | Sub Eng

Жанр: комедія
Країна: США

Кіностудія / кінокомпанія: Morgan Creek Productions, Warner Bros.
Режисер: Стів Одекерк
Актори: Джим Керрі/Jim Carrey, Аян МакНіс/Ian McNeice, Саймон Келлоу/Simon Callow, Мейнард Ізайші/Maynard Eziashi, Боб Гантон/Bob Gunton, Софі Оконедо/Sophie Okonedo
Сюжет:
Місце подій - Африка. Знаменитий детектив Ейс Вентура, єдиний у світі спеціаліст з розшуку тварин, знову взявся до справи. Цього разу Ейс повинен знайти Шікаку - священного кажана племені Вачаті. Без Шікаки не може відбутися весілля дочки вождя племені Вачаті та сина вождя злісного племені Вачуту. Якщо Ейс провалить завдання, то між обома племенами розпочнеться війна. Але Ейс Вентура не відступає перед труднощами. У пошуках священного Шікаки він бореться з крокодилами, приручає слонів, уподібнюється мавпам, катається на ліанах і ставить «на ноги» цілу Африку...

Тривалість: 01:34:04
Якість: 720p [ріп від AMIABLE]
Відео:
кодек: H. 264
розмір кадру: 1280 х 536
бітрейт: 5142 кб/с

Аудіо:
мова: українська
переклад: двоголосий закадровий
кодек: 2.0
бітрейт: 192 кб/с

Аудіо # 2:
мова: англійська
переклад: оригінал
кодек: 5.1
бітрейт: 1510 кб/с

Субтитри:
мова: англійська
тип: програмні (м'які)
формат: *.srt
Перекладено та озвучено студією:
Ролі озвучили: Євген Пашин та Людмила Ардельян.
Скріншоти


Media-Info
Код:
General
Unique ID                                : 239950860964115302002281968263474083147 (0xB484DAD6382B45B3908FB78C28D6754B)
Complete name                            : D:\Релізи\! Фільми\Ace Ventura. Dilogy (1994-1995) (720p) Ukr.Eng Sub-Eng [Hurtom]\Ace Ventura - When Nature Calls (1995) (720p) Ukr.Eng Sub-Eng [Hurtom].mkv
Format                                   : Matroska
Format version                           : Version 4 / Version 2
File size                                : 4.50 GiB
Duration                                 : 1h 34mn
Overall bit rate                         : 6 844 Kbps
Movie name                               : Ace Ventura - When Nature Calls (1995) (720p) Ukr.Eng Sub-Eng [Hurtom]
Encoded date                             : UTC 2010-02-22 21:41:31
Writing application                      : mkvmerge v5.9.0 ('On The Loose') built on Dec  9 2012 15:37:01
Writing library                          : libebml v1.3.0 + libmatroska v1.4.0

Video
ID                                       : 1
Format                                   : AVC
Format/Info                              : Advanced Video Codec
Format profile                           : [email protected]
Format settings, CABAC                   : Yes
Format settings, ReFrames                : 5 frames
Codec ID                                 : V_MPEG4/ISO/AVC
Duration                                 : 1h 34mn
Bit rate                                 : 5 142 Kbps
Width                                    : 1 280 pixels
Height                                   : 536 pixels
Display aspect ratio                     : 2.40:1
Frame rate mode                          : Constant
Frame rate                               : 23.976 fps
Color space                              : YUV
Chroma subsampling                       : 4:2:0
Bit depth                                : 8 bits
Scan type                                : Progressive
Bits/(Pixel*Frame)                       : 0.313
Stream size                              : 3.29 GiB (73%)
Title                                    :
Writing library                          : core 135 r2345 f0c1c53
Encoding settings                        : cabac=1 / ref=5 / deblock=1:-3:-3 / analyse=0x3:0x133 / me=umh / subme=8 / psy=1 / psy_rd=1.00:0.15 / mixed_ref=1 / me_range=16 / chroma_me=1 / trellis=1 / 8x8dct=1 / cqm=0 / deadzone=21,11 / fast_pskip=0 / chroma_qp_offset=-3 / threads=12 / lookahead_threads=2 / sliced_threads=0 / nr=0 / decimate=1 / interlaced=0 / bluray_compat=0 / constrained_intra=0 / bframes=3 / b_pyramid=2 / b_adapt=1 / b_bias=0 / direct=3 / weightb=1 / open_gop=0 / weightp=2 / keyint=240 / keyint_min=23 / scenecut=40 / intra_refresh=0 / rc_lookahead=40 / rc=2pass / mbtree=1 / bitrate=5142 / ratetol=1.0 / qcomp=0.60 / qpmin=0 / qpmax=69 / qpstep=4 / cplxblur=20.0 / qblur=0.5 / ip_ratio=1.40 / aq=1:1.00
Language                                 : English
Default                                  : Yes
Forced                                   : No

Audio #1
ID                                       : 2
Format                                   : AC-3
Format/Info                              : Audio Coding 3
Mode extension                           : CM (complete main)
Format settings, Endianness              : Big
Codec ID                                 : A_AC3
Duration                                 : 1h 34mn
Bit rate mode                            : Constant
Bit rate                                 : 192 Kbps
Channel(s)                               : 2 channels
Channel positions                        : Front: L R
Sampling rate                            : 48.0 KHz
Bit depth                                : 16 bits
Compression mode                         : Lossy
Stream size                              : 129 MiB (3%)
Title                                    : DVO (Новий канал)
Language                                 : Ukrainian
Default                                  : Yes
Forced                                   : No

Audio #2
ID                                       : 3
Format                                   :
Format/Info                              : Digital Theater Systems
Mode                                     : 16
Format settings, Endianness              : Big
Codec ID                                 : A_DTS
Duration                                 : 1h 34mn
Bit rate mode                            : Constant
Bit rate                                 : 1 509 Kbps
Channel(s)                               : 5 channels
Channel positions                        : Front: L C R, Side: L R
Sampling rate                            : 48.0 KHz
Bit depth                                : 24 bits
Compression mode                         : Lossy
Stream size                              : 1 015 MiB (22%)
Title                                    : Original
Language                                 : English
Default                                  : No
Forced                                   : No

Text #1
ID                                       : 4
Format                                   : UTF-8
Codec ID                                 : S_TEXT/UTF8
Codec ID/Info                            : UTF-8 Plain Text
Title                                    : SDH
Language                                 : English
Default                                  : No
Forced                                   : No

Text #2
ID                                       : 5
Format                                   : UTF-8
Codec ID                                 : S_TEXT/UTF8
Codec ID/Info                            : UTF-8 Plain Text
Language                                 : English
Default                                  : No
Forced                                   : No

Menu
00:00:00.000                             : en:00:00:00.000
00:02:58.845                             : en:00:02:58.845
00:03:55.902                             : en:00:03:55.902
00:06:01.194                             : en:00:06:01.194
00:10:51.860                             : en:00:10:51.860
00:12:26.204                             : en:00:12:26.204
00:14:20.401                             : en:00:14:20.401
00:16:59.018                             : en:00:16:59.018
00:18:51.213                             : en:00:18:51.213
00:21:47.973                             : en:00:21:47.973
00:24:27.633                             : en:00:24:27.633
00:26:48.440                             : en:00:26:48.440
00:32:21.648                             : en:00:32:21.648
00:34:37.993                             : en:00:34:37.993
00:35:29.044                             : en:00:35:29.044
00:39:14.894                             : en:00:39:14.894
00:41:31.030                             : en:00:41:31.030
00:43:40.535                             : en:00:43:40.535
00:47:15.124                             : en:00:47:15.124
00:50:22.144                             : en:00:50:22.144
00:51:53.736                             : en:00:51:53.736
00:55:13.644                             : en:00:55:13.644
00:56:37.769                             : en:00:56:37.769
00:58:41.685                             : en:00:58:41.685
01:00:32.337                             : en:01:00:32.337
01:03:02.904                             : en:01:03:02.904
01:04:08.511                             : en:01:04:08.511
01:06:58.640                             : en:01:06:58.640
01:09:26.829                             : en:01:09:26.829
01:12:25.591                             : en:01:12:25.591
01:17:27.810                             : en:01:17:27.810
01:17:48.497                             : en:01:17:48.497
01:20:09.930                             : en:01:20:09.930
01:22:44.459                             : en:01:22:44.459
01:25:32.127                             : en:01:25:32.127
01:26:43.031                             : en:01:26:43.031

Джерело:
Особиста оцінка: 8/10.

Джерело:
Висловлюю подяку п. Sando7 за записи з Нового. Запис з ICTV та зведення - 4erkov. Також подяка п. Віктору за фільмографії акторів.


Срібний реліз (на рейтинг впливає 50% завантаженого)
 Трекер:    Зареєстрований   

Завантажити / скачати фільм українською



відео для новачків



 Зареєстрований:   2013-08-29 16:37
 Розмір:   8.98 GB 
 Оцінка фільму:   9.9/10 (Голосів: 20)
   
Інші релізи
4erkov 
Відео Гуртом - запис з ТБ
Відео Гуртом - запис з ТБ


З нами з: 09.10.10
Востаннє: 08.12.16
Повідомлень: 1846

2013-08-27 17:34  
На ICTV транслювали з аналогічним перекладом.
Оскільки останнього разу Новий канал транслював цензуровану версію фільму, присутні кілька вставок запису з ICTV (просто Новий канал транслює у кращій якості).

Реліз протягом тижня. Також буде роздача від п. patriot2305.
Використано доріжки:
Новий канал: SAT, mp2 2.0 192 kbps (до 17 kHz). Трансляція від 2013.07.14.
ICTV (вставки): IPTV, mp2 2.0 128 kbps (до 13 kHz). Трансляція від 2011.11.30.

StAn16 
Свій


З нами з: 29.01.11
Востаннє: 08.12.16
Повідомлень: 98

2013-08-27 19:14  
Цитата:
цензуровану

В чому виявляється та цензура? Я не помічав ніяких відмінностей.

4erkov 
Відео Гуртом - запис з ТБ
Відео Гуртом - запис з ТБ


З нами з: 09.10.10
Востаннє: 08.12.16
Повідомлень: 1846

2013-08-27 19:21  
StAn16 написано:
В чому виявляється та цензура? Я не помічав ніяких відмінностей.

Новий канал вирізав постільні сцени і фрази з натяком на секс. Загалом кілька хвилин.

wolverine 
VIP


З нами з: 26.09.09
Востаннє: 08.12.16
Повідомлень: 320

2013-08-28 09:15  
дякую, чекаю з нетерпінням на реліз =)
RobertMenus 
Відео Гуртом - субтитрування
Відео Гуртом - субтитрування


З нами з: 08.03.11
Востаннє: 07.12.16
Повідомлень: 73

2013-08-28 22:51  
який пуританський в нас новий канал...
Ваш часовий пояс: GMT + 2 Години

Нова тема   Відповісти