Завантажити та скачати торренти українською


Хорова капела «Орея» - With Love and God For You / З любов’ю i Богом до тебе (2CD) (1996) [FLAC] | Choral / Classic

Нові коментарі

Нова тема   Відповісти
Останній раз роздавалося bohun (2016-12-02)
Автор Повідомлення
bohun 
VIP


З нами з: 21.03.09
Востаннє: 01.12.16
Повідомлень: 271

2013-08-26 19:51  
Хорова капела «Орея» - With Love and God For You / З любов’ю i Богом до тебе (2CD) (1996) [FLAC] | Choral / Classic

Хорова капела «Орея» - With Love and God For You / З любов’ю i Богом до тебе (2CD) (1996) [FLAC] | Choral / Classic


Стиль: Christian Classic
Країна, місто: Україна, Житомир
Видавець: Caravan CD [KCD 021-022]
Пісні:
CD1 - Духовна і сучасна українська музика
    01. "Помышляю день страшный" А. Архангельський.
    02. "Тебе поём" В.Калінніков.
    03. "Жертва вечерняя" П. Чесноков.
    04. "Достойно є..." Св.Іоанна Златоуста, К. Стеценко.
    05. "Камо пойду" М. Лисенко, Псалм N 139.
    06. "Ой в Єрусалимі" Яків Яценевич.
    07. "Павочка ходить" в обробці А. Авдієвський.
    08. "Сонце заходить" С. Людкевич.
    09. "Літо" фрагмент із музики Л. Дичко "Пори року" (жіночий склад).
    10. "Із-за гаю сонце сходить" Б. Лятошинський.
    11. "Дримба" В. Зубицький.
    12. "Купальська" Є. Станкович.
EAC log
Exact Audio Copy V0.99 prebeta 5 from 4. May 2009

EAC extraction logfile from 18. January 2012, 14:48

Choir capella 'Oreya' / With Love and God For You (CD1)

Used drive : TSSTcorpCDDVDW SH-S203B Adapter: 2 ID: 0

Read mode : Secure
Utilize accurate stream : Yes
Defeat audio cache : Yes
Make use of C2 pointers : No

Read offset correction : 6
Overread into Lead-In and Lead-Out : No
Fill up missing offset samples with silence : Yes
Delete leading and trailing silent blocks : No
Null samples used in CRC calculations : Yes
Used interface : Installed external ASPI interface

Used output format : Internal WAV Routines
Sample format : 44.100 Hz; 16 Bit; Stereo

TOC of the extracted CD

Track | Start | Length | Start sector | End sector
---------------------------------------------------------
1 | 0:00.00 | 5:48.02 | 0 | 26101
2 | 5:48.02 | 1:44.02 | 26102 | 33903
3 | 7:32.04 | 6:39.02 | 33904 | 63830
4 | 14:11.06 | 2:21.02 | 63831 | 74407
5 | 16:32.08 | 2:49.02 | 74408 | 87084
6 | 19:21.10 | 1:56.02 | 87085 | 95786
7 | 21:17.12 | 2:08.02 | 95787 | 105388
8 | 23:25.14 | 4:42.02 | 105389 | 126540
9 | 28:07.16 | 6:08.02 | 126541 | 154142
10 | 34:15.18 | 3:02.02 | 154143 | 167794
11 | 37:17.20 | 3:56.02 | 167795 | 185496
12 | 41:13.22 | 6:12.02 | 185497 | 213398

Range status and errors

Selected range

Filename C:\Incoming\Rips by unclesandy\Choir capella 'Oreya' With Love and God For You [1996, 2CD]\Choir capella 'Oreya' - With Love and God For You (CD1).wav

Peak level 100.0 %
Range quality 100.0 %
Test CRC FA3E8117
Copy CRC FA3E8117
Copy OK

No errors occurred

AccurateRip summary

Track 1 not present in database
Track 2 not present in database
Track 3 not present in database
Track 4 not present in database
Track 5 not present in database
Track 6 not present in database
Track 7 not present in database
Track 8 not present in database
Track 9 not present in database
Track 10 not present in database
Track 11 not present in database
Track 12 not present in database

None of the tracks are present in the AccurateRip database

End of status report
auCDtect info
AccuRip Check
[CUETools log; Date: 18.01.2012 15:19:51; Version: 2.1.2a]
[CTDB TOCID: DVSs8YmAfr73yc1Ogk.g3A3eV4Y-] disk not present in database.
[AccurateRip ID: 00145a79-00bc5937-af0b1d0c] disk not present in database.

Track Peak [ CRC32 ] [W/O NULL] [ LOG ]
-- 100,0 [FA3E8117] [43DD1941] CRC32
01 99,9 [25B2794B] [93269E4E]
02 100,0 [4A5E0786] [3058BC61]
03 99,9 [D31DD4C2] [4E79AFF7]
04 99,9 [088BE5AB] [A08BD1E4]
05 100,0 [36C192AC] [5CDC55BA]
06 99,9 [D54C58C0] [39C2464E]
07 100,0 [B57BC645] [5E35A4D6]
08 100,0 [249D0B03] [7B314B2A]
09 99,9 [FAE5B2BD] [4D29C7CE]
10 99,9 [65EC0464] [54E50EA4]
11 99,9 [1E7365AD] [5C878FF1]
12 86,7 [6AE36D54] [FB0B1CF2]
CD2 - Духовна і сучасна світова музика
    01. "Ave Maria" Антон Брукнер.
    02. "Sanctus" Френсіс Пуленк.
    03. "Tenebrae factae sunt" Енц Рет.
    04. "Cantar del alma" Ф. Момпо.
    05. "Stabat mater dolorosa" Т. Кверно.
    06. "Deep river" Негритянский спіричуел.
    07. "He's got the whole world in his hands" Негритянский спіричуел.
    08. "An old silent pond" Н. Дінерстейн.
    09. "Serenade" Е. Елгар.
    10. "Таємничий перстень" Юріс Карлсонс.
EAC log
Exact Audio Copy V0.99 prebeta 5 from 4. May 2009

EAC extraction logfile from 18. January 2012, 15:11

Choir capella 'Oreya' / With Love and God For You (CD2)

Used drive : TSSTcorpCDDVDW SH-S203B Adapter: 2 ID: 0

Read mode : Secure
Utilize accurate stream : Yes
Defeat audio cache : Yes
Make use of C2 pointers : No

Read offset correction : 6
Overread into Lead-In and Lead-Out : No
Fill up missing offset samples with silence : Yes
Delete leading and trailing silent blocks : No
Null samples used in CRC calculations : Yes
Used interface : Installed external ASPI interface

Used output format : Internal WAV Routines
Sample format : 44.100 Hz; 16 Bit; Stereo

TOC of the extracted CD

Track | Start | Length | Start sector | End sector
---------------------------------------------------------
1 | 0:00.00 | 2:53.02 | 0 | 12976
2 | 2:53.02 | 2:22.02 | 12977 | 23628
3 | 5:15.04 | 6:05.02 | 23629 | 51005
4 | 11:20.06 | 5:23.02 | 51006 | 75232
5 | 16:43.08 | 7:08.02 | 75233 | 107334
6 | 23:51.10 | 2:18.02 | 107335 | 117686
7 | 26:09.12 | 3:29.02 | 117687 | 133363
8 | 29:38.14 | 2:45.02 | 133364 | 145740
9 | 32:23.16 | 2:15.02 | 145741 | 155867
10 | 34:38.18 | 6:55.02 | 155868 | 186994

Range status and errors

Selected range

Filename C:\Incoming\Rips by unclesandy\Choir capella 'Oreya' With Love and God For You [1996, 2CD]\Choir capella 'Oreya' - With Love and God For You (CD2).wav

Peak level 100.0 %
Range quality 100.0 %
Test CRC A3A4DB32
Copy CRC A3A4DB32
Copy OK

No errors occurred

AccurateRip summary

Track 1 not present in database
Track 2 not present in database
Track 3 not present in database
Track 4 not present in database
Track 5 not present in database
Track 6 not present in database
Track 7 not present in database
Track 8 not present in database
Track 9 not present in database
Track 10 not present in database

None of the tracks are present in the AccurateRip database

End of status report
auCDtect info
AccuRip Check
[CUETools log; Date: 18.01.2012 15:20:10; Version: 2.1.2a]
[CTDB TOCID: V8A7mHYGzgKDtYbYPkVJCKqF9vc-] disk not present in database.
[AccurateRip ID: 000f68ab-007c3130-7609bd0a] disk not present in database.

Track Peak [ CRC32 ] [W/O NULL] [ LOG ]
-- 100,0 [A3A4DB32] [845AC6CD] CRC32
01 99,9 [087B5CE6] [478D205A]
02 99,9 [3E67B275] [0A404268]
03 100,0 [76D11A4C] [0DE9BFF6]
04 99,9 [2E2DA5A8] [1F3F0198]
05 99,9 [325BDFAC] [9E6D8684]
06 100,0 [0448682D] [D79FF9E7]
07 99,9 [F603ABB4] [71844E29]
08 100,0 [3F326595] [FFAD1165]
09 100,0 [410260E0] [D5912BF6]
10 100,0 [5404EE61] [335BA772]
Тривалість: 01:28:58
Мови: українська(CD1: 4, 6-12, CD2: 10), церковно-слов'янська (CD1: 1-3, 5), латинська (CD2: 1-5), англійська (CD2: 6-9)
Аудіо-кодек: FLAC
Бітрейт: 508-532 кбіт/с
Джерело: Рутрекер, (unclesandy)
Додаткова інформація:
«Орея» - муніципальна хорова капела. Створена керівником Олександром Вацеком - в 1986 році в м. Житомирі (Україна). Капелу підтримує Житомирська обласна адміністрація.
Хор складається з 30 осіб, це один з найоригінальніших українських хорів.
Починаючи з 1986 року, «Орея» бере участь в Європейських хорових фестивалях і конкурсах, де отримала 7 Гран-Прі та 25 перших місць.


Якщо Ви справді бажаєте підтримати українське - після прослуховування, якщо музика вам сподобалась, придбайте ліцензійний диск. Підтримаймо вітчизняних виконавців!


Срібний реліз (на рейтинг впливає 50% завантаженого)
 Трекер:    Зареєстрований   

Завантажити / скачати українську музику



відео для новачків



 Зареєстрований:   2013-08-26 19:51
 Розмір:   365 MB 
 Оцінка музики:   6.4/10 (Голосів: 5)
   
ssTAss 
Модератор музики


З нами з: 05.07.08
Востаннє: 02.12.16
Повідомлень: 10928

2013-08-26 21:19  
bohun написано:
Мови: українська, російська, церковно-слов'янська, латинська, англійська

до кожного диску треба вказати потреково

bohun 
VIP


З нами з: 21.03.09
Востаннє: 01.12.16
Повідомлень: 271

2013-08-26 21:34  
ssTAss написано:

bohun написано:
Мови: українська, російська, церковно-слов'янська, латинська, англійська

до кожного диску треба вказати потреково

Це буде складно зробити: для деяких треків на слух не можливо достеменно визначити, на якій мові співають. Але спробую...

ssTAss 
Модератор музики


З нами з: 05.07.08
Востаннє: 02.12.16
Повідомлень: 10928

2013-08-26 21:36  
bohun написано:
для деяких треків на слух не можливо достеменно визначити, на якій мові співають

хоча б тоді приблизно... орієнтуючись по назві

Ваш часовий пояс: GMT + 2 Години

Нова тема   Відповісти