Завантажити та скачати торренти українською


Буття Брайана за Монті Пайтоном / Monty Python's Life of Brian (1979) 1080p Ukr/Eng | sub Ukr/Eng

Нові коментарі

Нова тема   Відповісти
Автор Повідомлення
Omikron 
VIP


З нами з: 03.01.12
Востаннє: 30.11.16
Повідомлень: 297

2013-08-25 20:36  
Буття Брайана за Монті Пайтоном / Monty Python's Life of Brian (1979) 1080p Ukr/Eng | sub Ukr/Eng

Буття Брайана за Монті Пайтоном / Monty Python's Life of Brian (1979) 1080p Ukr/Eng | sub Ukr/Eng


Жанр: комедія
Країна: Великобританія



Кінокомпанія: HandMade Films, Python (Monty) Pictures
Режисер: Террі Джоунс
Актори: Грем Чепмен, Джон Кліз, Террі Джіліем, Ерік Айдл, Террі Джоунс, Майкл Пейлін, Теренс Бейлер, Керол Клівленд, Джон Янг, С'ю Джоунс-Дейвіс

Сюжет:
Уявіть, що тієї визначної ночі у кількох метрах від усім відомого хліву народилося інше дитя. То був не Ісус з Назарета, а Брайан. Брайан з Назарета. Як виявилось, він не міг творити дива, а часом навіть не вмів відрізнити святого від вилупка. То чому це раптом юдейський народ почав обтирати пил з капців такого невігласа? Як Месія став терористом? І кого, в решті решт, розп'ято на хресті?


Українською мовою озвучено студією Омікрон на замовлення HURTOM.COM


Тривалість: 01:33:43
Якість:
Відео:
кодек:
розмір кадру: 1920x1040
бітрейт: 19.5 мб/с

Аудіо # 1:
мова: українська | Омікрон
переклад: багатоголосий закадровий
кодек: 5.1
бітрейт: 1510 кб/с

Аудіо # 2:
мова: англійська
переклад: оригінал
кодек: 5.1
бітрейт: 1510 кб/с

Аудіо # 3:
мова: англійська
переклад: коментарі
кодек: 2.0
бітрейт: 192 кб/с

Аудіо # 4:
мова: англійська
переклад: коментарі
кодек: 2.0
бітрейт: 192 кб/с

Субтитри # 1:
мова: українська (пісня на титрах)
тип: програмні (м'які)
формат: *.srt

Субтитри # 2:
мова: українська
тип: програмні (м'які)
переклад: antusyrzhuk
формат: *.srt

Субтитри # 3:
мова: англійська
тип: програмні (м'які)
формат: *.srt

Скріншоти





Звіт MediaInfo
Format : Matroska
Format version : Version 2
File size : 14.9 GiB
Duration : 1h 33mn
Overall bit rate : 22.8 Mbps
Encoded date : UTC 2013-08-25 17:36:31
Writing application : mkvmerge v2.9.0 ('Moanin'') built on May 22 2009 17:46:31
Writing library : libebml v0.7.7 + libmatroska v0.8.1

Video
ID : 1
Format : AVC
Format/Info : Advanced Video Codec
Format profile : [email protected]
Format settings, CABAC : Yes
Format settings, ReFrames : 4 frames
Codec ID : V_MPEG4/ISO/AVC
Duration : 1h 33mn
Bit rate : 19.5 Mbps
Width : 1 920 pixels
Height : 1 040 pixels
Display aspect ratio : 1.85:1
Frame rate mode : Constant
Frame rate : 23.976 fps
Color space : YUV
Chroma subsampling : 4:2:0
Bit depth : 8 bits
Scan type : Progressive
Bits/(Pixel*Frame) : 0.407
Stream size : 12.4 GiB (83%)
Writing library : core 128 r2216kMod 198a7ea
Encoding settings : cabac=1 / ref=4 / deblock=1:-3:-3 / analyse=0x3:0x113 / me=umh / subme=11 / psy=1 / fade_compensate=0.00 / psy_rd=1.25:0.10 / mixed_ref=1 / me_range=48 / chroma_me=1 / trellis=2 / 8x8dct=1 / cqm=0 / deadzone=21,11 / fast_pskip=0 / chroma_qp_offset=-3 / threads=12 / lookahead_threads=2 / sliced_threads=0 / nr=0 / decimate=0 / interlaced=0 / bluray_compat=0 / constrained_intra=0 / bframes=7 / b_pyramid=2 / b_adapt=2 / b_bias=0 / direct=3 / weightb=1 / open_gop=0 / weightp=2 / keyint=250 / keyint_min=23 / scenecut=40 / intra_refresh=0 / rc_lookahead=240 / rc=2pass / mbtree=1 / bitrate=19500 / ratetol=1.0 / qcomp=0.80 / qpmin=0 / qpmax=69 / qpstep=4 / cplxblur=20.0 / qblur=0.5 / vbv_maxrate=50000 / vbv_bufsize=62500 / nal_hrd=none / ip_ratio=1.40 / aq=1:0.80
Language : English
Default : Yes
Forced : No
Matrix coefficients : BT.709

Audio #1
ID : 2
Format :
Format/Info : Digital Theater Systems
Codec ID : A_DTS
Duration : 1h 33mn
Bit rate mode : Constant
Bit rate : 1 510 Kbps
Channel(s) : 6 channels
Channel positions : Front: L C R, Side: L R, LFE
Sampling rate : 48.0 KHz
Bit depth : 24 bits
Compression mode : Lossy
Stream size : 1 012 MiB (7%)
Title : MVO Omikron studio for Hurtom
Language : Ukrainian
Default : Yes
Forced : No

Audio #2
ID : 3
Format :
Format/Info : Digital Theater Systems
Codec ID : A_DTS
Duration : 1h 33mn
Bit rate mode : Constant
Bit rate : 1 510 Kbps
Channel(s) : 6 channels
Channel positions : Front: L C R, Side: L R, LFE
Sampling rate : 48.0 KHz
Bit depth : 24 bits
Compression mode : Lossy
Delay relative to video : 11ms
Stream size : 1 012 MiB (7%)
Language : English
Default : No
Forced : No

Audio #3
ID : 4
Format : AC-3
Format/Info : Audio Coding 3
Mode extension : CM (complete main)
Format settings, Endianness : Big
Codec ID : A_AC3
Duration : 1h 33mn
Bit rate mode : Constant
Bit rate : 192 Kbps
Channel(s) : 2 channels
Channel positions : Front: L R
Sampling rate : 48.0 KHz
Bit depth : 16 bits
Compression mode : Lossy
Stream size : 129 MiB (1%)
Title : Commentary by Terry Gilliam, Terry Jones, and Eric Idle
Language : English
Default : No
Forced : No

Audio #4
ID : 5
Format : AC-3
Format/Info : Audio Coding 3
Mode extension : CM (complete main)
Format settings, Endianness : Big
Codec ID : A_AC3
Duration : 1h 33mn
Bit rate mode : Constant
Bit rate : 192 Kbps
Channel(s) : 2 channels
Channel positions : Front: L R
Sampling rate : 48.0 KHz
Bit depth : 16 bits
Compression mode : Lossy
Stream size : 129 MiB (1%)
Title : Commentary by John Cleese and Michael Paulin
Language : English
Default : No
Forced : No

Text #1
ID : 6
Format : UTF-8
Codec ID : S_TEXT/UTF8
Codec ID/Info : UTF-8 Plain Text
Title : Title song
Language : Ukrainian
Default : Yes
Forced : No

Text #2
ID : 7
Format : UTF-8
Codec ID : S_TEXT/UTF8
Codec ID/Info : UTF-8 Plain Text
Language : Ukrainian
Default : No
Forced : No

Text #3
ID : 8
Format : UTF-8
Codec ID : S_TEXT/UTF8
Codec ID/Info : UTF-8 Plain Text
Language : English
Default : No
Forced : No

Menu
00:00:00.000 : en:00:00:00.000
00:06:44.654 : en:00:06:44.654
00:11:26.811 : en:00:11:26.811
00:14:07.388 : en:00:14:07.388
00:18:04.166 : en:00:18:04.166
00:23:44.047 : en:00:23:44.047
00:27:32.734 : en:00:27:32.734
00:30:54.018 : en:00:30:54.018
00:38:12.164 : en:00:38:12.164
00:42:29.546 : en:00:42:29.546
00:48:12.347 : en:00:48:12.347
00:55:56.936 : en:00:55:56.936
01:02:50.767 : en:01:02:50.767
01:09:59.987 : en:01:09:59.987
01:20:39.042 : en:01:20:39.042
01:29:22.648 : en:01:29:22.648
Про озвучення

Українське озвучення створено в рамках проекту "Хочеш кіно українською? Замовляй!"



Дякуємо за фінансову підтримку Tanat13, Sehrg-Gut, MFX, Толя, Myshko3007, Mitya_GUNNER, cyclone2000, Drev11, Yelovbasted, somnambula, Violator, Dim-ON

Детальніше про проект.


Джерело:

Фільми, які було озвучено на замовлення Гуртом (допоможіть озвучити наступні):
М: Місто шукає вбивцю (1931)
Чарівник країни Оз (1939)
Великий диктатор (1940)
Громадянин Кейн (1941)
Подвійна страховка (1944)
Це дивовижне життя (1946)
Викрадачі велосипедів (1948)
Рашьомон (1950)
Сім самураїв (1954)
У випадку вбивства телефонуйте "М" (1954)
Леді та Блудько (1955) нове
12 розгніваних чоловіків (1957)
Сьома печатка (1957)
На північ через північний захід (1959)
Більярдист (1961)
Охоронець (1961)
Вбити пересмішника (1962)
Людина, що вбила Ліберті Веленса (1962)
Вісім з половиною (1963)
Велика прогулянка (1966)
Як Ґрінч украв Різдво! (1966)
Випускник (1967)
Самурай (1967)
Одного разу на Дикому Заході (1968)
Коти-аристократи (1970)
Механічний апельсин (1971)
Навколо світу за 80 днів (1972) нове
Китайський квартал (1974)
Пролітаючи над гніздом зозулі (1975)
Телемережа (1976)
Енні Голл (1977) нове
Мисливець на оленів (1978)
Буття Брайана за Монті Пайтоном (1979)
Коли я буду там (1979)
Мангеттен (1979)
Людина-слон (1980)
Приборкання норовливого (1980)
Скажений бик (1980)
Підводний човен (1981)
Ґанді (1982)
Король комедії (1982) нове
Різдвяна історія (1983)
Амадей (1984)
Барва пурпурова (1985)
Бразилія (1985)
Ран (1985)
Великий мишачий детектив (1986)
Небесний замок Лапута (1986)
Акіра (1988)
Мій сусід Тоторо (1988)
Останній з могікан (1992)
Скажені пси (1992)
Шосе в нікуди (1997) нове
Американська історія Ікс (1998)
Страх і огида в Лас-Вегасі (1998)
Шоу Трумена (1998)
Догма (1999)
Магнолія (1999) нове
Сука любов (2000) нове
Нічия земля (2001)
Родина Тененбаумів (2001)
Тріо з Бельвіля (2003)
Труднощі перекладу (2003)
Бункер (2004)
Готель Руанда (2004)
Тренер Картер (2005)
Льодовиковий період 2 (2006)
Лабіринт Фавна (2006)
Людина з планети Земля (2007)
В тіні місяця (2007)
Голод (2008)
Іп Мен (2008)
Викрадена (2008)
Впусти мене (2008)
Хвиля (2008)
Містер Ніхто (2009)
13 вбивць (2010)
Бетмен: Під червоною маскою (2010)
Іп Мен 2 (2010)
Котяче життя (2010)
Позичайка Аріетті (2010)
Чорний Лебідь (2010)
Місто (2010)
Сенна (2010)
50/50 (2011)
Адвокат на лінкольні (2011)
Дерево життя (2011)
Опівночі в Парижі (2011)
Воїн (2011)
Драйв (2011)
Життя за один день (2011)
Укриття (2011)
Хижа в лісі (2011)
Рейд: Спокута (2011)
Акт вбивства (2012)
Арго (2012)
Безпека не гарантується (2012)
Викрадена 2 (2012)
Збірка промінців надії (2012)
Ернест і Селестіна (2012)
Звірі дикого Півдня (2012)
Лінкольн (2012)
Любов (2012)
Надійні хлопці (2012)
Паркер (2012)
Переваги скромників (2012)
Пліч-о-пліч (2012)
Полювання (2012)
Розірване коло (2012)
Суддя Дредд (2012)
Тридцять хвилин по півночі (2012)
Що б ви зробили (2012)
Американська афера (2013)
Виклик (2013)
Вона (2013)
Ворог (2013)
Всередині Л'ювіна Девіса (2013)
Джо (2013)
Зловісні мерці (2013)
Іда (2013)
Лок (2013)
Небраска (2013)
Неймовірна подорож містера Співета (2013) нове
Побічна дія (2013)
Перед північчю (2013)
Снігобур (2013)
Стокер (2013)
TPB: за межами клавіатури (2013)
Гниле місто (2013)
Бердмен (2014)
Вероніка Марс (2014)
Вроджена вада (2014) нове
Дика (2014) нове
Інтерв'ю (2014) нове
Святий Вінсент (2014)
Пісня моря (2014) нове
Призначення (2014) нове
Шеф-кухар (2014)


Авторський реліз (завантажувати можна без реєстрації)
 Трекер:    Зареєстрований   

Завантажити / скачати фільм українською



відео для новачків



 Зареєстрований:   2013-08-25 20:36
 Розмір:   14.93 GB 
 Оцінка фільму:   6.9/10 (Голосів: 11)
   
Ваш часовий пояс: GMT + 2 Години

Нова тема   Відповісти