Завантажити та скачати торренти українською


Я, Робот / I, Robot [Open Matte] (2004) 720p Ukr/Eng | sub Ukr/Eng

Нові коментарі

Нова тема   Відповісти
Автор Повідомлення
Anonymous 







2013-08-24 18:34  
Я, Робот / I, Robot [Open Matte] (2004) 720p Ukr/Eng | sub Ukr/Eng



Альтернативні постери






Жанр: фантастика, бойовик, трилер, детектив
Країна: США, Німеччина



Кінокомпанія: Twentieth Century Fox Film Corporation, Mediastream Vierte Film GmbH & Co. Vermarktungs KG, Davis Entertainment
Режисер: Алекс Пройас / Alex Proyas
Актори: Вілл Сміт / Will Smith, Бріджет Мойнехен / Bridget Moynahan, Алан Тудик / Alan Tudyk, Чі МакБрайд / Chi McBride, Джеймс Кромуелл / James Cromwell, Шиа ЛаБеф / Shia LaBeouf, Брюс Грінвуд / Bruce Greenwood, Адріан Рікард / Adrian Ricard, Джеррі Вассерман / Jerry Wasserman, Фіона Хоган / Fiona Hogan, Пітер Шинкода / Peter Shinkoda та інші

Сюжет:
Дія фільму відбувається в далекому майбутньому (2035 р.), де роботи є звичайними помічниками людини. Головний герой - поліцейський, що «не переварює» роботів, розслідує справу про вбивство, в якому замішаний робот.

Мова йде про можливе порушення «Закону про роботів» (робот ніколи не підніме руку на людину), що, в принципі, неможливо. Ситуація близька до катастрофічної: Якщо машини можуть порушувати цей закон, то вже ніщо не зупинить їх від захоплення контролю над людьми, тим більше, що людство вже давно стало повністю залежне від роботів ...


рейтинг MPAA: PG-13 - дітям до 13 років перегляд не бажаний
Вікова категорія: 12+

Тривалість: 01:54:44
Якість: 720p
Відео:
кодек:
розмір кадру: 1280x720 (16:9, AR 1.78:1)
бітрейт: 8686 кб/с
примітка: Ріп з Blu-ray 3D AVC з AR 1.78:1 (1920x1080), що вийшов у жовтні 2012. Оригінальний AR=2,40 (1920x800), тут інше наповнення кадру - зображення трішки обрізано з боків і суттєво збільшено згори і знизу. Найкраще підходить для перегляду на більшості сучасних екранах 16:9 - не буде чорних смуг.
Порівняння джерел


AR=2,40 vs AR=1,78
Аудіо # 1:
мова: українська
переклад: багатоголосий закадровий
Ролі озвучили: Володимир Терещук (Вілл Сміт / детектив Спунер), Юрій Гребельник, Анатолій Пашнін та Олена Бліннікова
кодек: 5.1
бітрейт: 448 кб/с

Аудіо # 2:
мова: англійська
переклад: оригінал
кодек: 5.1
бітрейт: 640 кб/с

Субтитри #1:
мова: українська, повні
тип: програмні (м'які)
формат: *.srt

Субтитри #2:
мова: англійська, повні
тип: програмні (м'які)
формат: *.srt

Субтитри #3:
мова: англійська - повні, SDH (для людей з вадами слуху)
тип: програмні (м'які)
формат: *.srt

Збережено оригінальні розділи, як на Blu-ray.
MediaInfo
General
Unique ID : 183796849580637257736901295587819961104 (0x8A45FC5230F436EE860C066310C2BB10)
Complete name : I,Robot.[Open.Matte].2004..720p.Ukr.Eng.[sub.Ukr.Eng].mkv
Format : Matroska
Format version : Version 4 / Version 2
File size : 7.99 GiB
Duration : 1h 54mn
Overall bit rate : 9 973 Kbps
Movie name : Я, Робот / I, Robot [Open Matte] (2004) 720p
Encoded date : UTC 2013-08-24 12:59:56
Writing application : mkvmerge v6.3.0 ('You can't stop me!') built on Jun 28 2013 20:09:41
Writing library : libebml v1.3.0 + libmatroska v1.4.0

Video
ID : 1
Format : AVC
Format/Info : Advanced Video Codec
Format profile : [email protected]
Format settings, CABAC : Yes
Format settings, ReFrames : 9 frames
Codec ID : V_MPEG4/ISO/AVC
Duration : 1h 54mn
Bit rate : 8 686 Kbps
Width : 1 280 pixels
Height : 720 pixels
Display aspect ratio : 16:9
Frame rate mode : Constant
Frame rate : 23.976 fps
Color space : YUV
Chroma subsampling : 4:2:0
Bit depth : 8 bits
Scan type : Progressive
Bits/(Pixel*Frame) : 0.393
Stream size : 6.96 GiB (87%)
Title : Я, Робот / I, Robot [Open Matte] (2004) [CtrlHD]
Writing library : core 128 r2216kMod 198a7ea
Encoding settings : cabac=1 / ref=9 / deblock=1:-3:-3 / analyse=0x3:0x113 / me=umh / subme=9 / psy=1 / fade_compensate=0.00 / psy_rd=1.15:0.00 / mixed_ref=1 / me_range=16 / chroma_me=1 / trellis=2 / 8x8dct=1 / cqm=0 / deadzone=21,11 / fast_pskip=0 / chroma_qp_offset=-2 / threads=6 / lookahead_threads=1 / sliced_threads=0 / nr=0 / decimate=0 / interlaced=0 / bluray_compat=0 / constrained_intra=0 / bframes=8 / b_pyramid=2 / b_adapt=2 / b_bias=0 / direct=3 / weightb=1 / open_gop=0 / weightp=2 / keyint=250 / keyint_min=23 / scenecut=40 / intra_refresh=0 / rc=crf / mbtree=0 / crf=18.0000 / qcomp=0.80 / qpmin=0 / qpmax=69 / qpstep=4 / ip_ratio=1.30 / pb_ratio=1.20 / aq=1:0.85
Language : English
Default : Yes
Forced : No

Audio #1
ID : 2
Format : AC-3
Format/Info : Audio Coding 3
Mode extension : CM (complete main)
Format settings, Endianness : Big
Codec ID : A_AC3
Duration : 1h 54mn
Bit rate mode : Constant
Bit rate : 448 Kbps
Channel(s) : 6 channels
Channel positions : Front: L C R, Side: L R, LFE
Sampling rate : 48.0 KHz
Bit depth : 16 bits
Compression mode : Lossy
Stream size : 368 MiB (4%)
Title : MVO 5.1 448 kbps
Language : Ukrainian
Default : Yes
Forced : No

Audio #2
ID : 3
Format : AC-3
Format/Info : Audio Coding 3
Mode extension : CM (complete main)
Format settings, Endianness : Big
Codec ID : A_AC3
Duration : 1h 54mn
Bit rate mode : Constant
Bit rate : 640 Kbps
Channel(s) : 6 channels
Channel positions : Front: L C R, Side: L R, LFE
Sampling rate : 48.0 KHz
Bit depth : 16 bits
Compression mode : Lossy
Stream size : 525 MiB (6%)
Title : Original 5.1 @ 640 kbps
Language : English
Default : No
Forced : No

Text #1
ID : 4
Format : UTF-8
Codec ID : S_TEXT/UTF8
Codec ID/Info : UTF-8 Plain Text
Title : Ukr full [Hurtom-LIONN]
Language : Ukrainian
Default : No
Forced : No

Text #2
ID : 5
Format : UTF-8
Codec ID : S_TEXT/UTF8
Codec ID/Info : UTF-8 Plain Text
Title : Eng full
Language : English
Default : No
Forced : No

Text #3
ID : 6
Format : UTF-8
Codec ID : S_TEXT/UTF8
Codec ID/Info : UTF-8 Plain Text
Title : Eng full SDH
Language : English
Default : No
Forced : No

Menu
00:00:00.000 : en:Opening Titles
00:01:46.314 : en:Del Spooner
00:03:29.626 : en:Spoonerville
00:06:17.919 : en:The Chase
00:07:56.893 : en:Police Station
00:10:19.076 : en:Dr. Laning's Hologram
00:12:10.604 : en:Lawrence Robertson
00:15:34.683 : en:Susan Calvin's Tour of USR
00:17:47.357 : en:Sonny
00:22:51.244 : en:Factory Floor
00:26:13.405 : en:Caught
00:26:58.616 : en:The Interrogation
00:33:22.542 : en:The Cafe
00:36:02.952 : en:Lanning's House
00:41:22.897 : en:The End of a Long Day
00:46:07.264 : en:NS-5 Rollout
00:49:05.400 : en:Following Bread Crumbs
00:52:13.880 : en:"You Are Experiencing a Car Accident"
00:55:21.651 : en:One on One
00:58:31.090 : en:The Cavalry Arrives
01:00:06.144 : en:Two Sons
01:01:08.039 : en:Spooner's Past
01:07:55.487 : en:The Bike
01:08:17.468 : en:Sonny's Dream
01:10:23.677 : en:Robertson's Office
01:13:16.600 : en:Shell Game
01:16:53.191 : en:Ghosts in the Machine
01:18:38.838 : en:Father and Son
01:20:13.600 : en:Ambush
01:21:17.664 : en:NS-5s Come On-Line
01:21:56.828 : en:Robot Wars
01:27:28.910 : en:The Back Door
01:28:57.039 : en:The Standoff
01:32:59.031 : en:Viki Level
01:34:44.512 : en:Unauthorized Entry
01:38:08.841 : en:"Save Her!"
01:41:10.272 : en:Reconciliation
01:44:14.790 : en:Sonny's Future
01:45:02.128 : en:End Titles
01:54:43.251 : en:


Джерела та подяки: ріп відео, оригінальні звук та субтитри - CtrlHD, HQ-ViDEO; українська доріжка - HQCLUB; українські субтитри - LIONN (Гуртом) та власне редагування.
Окрема подяка braveboy'ю за надані субтитри.

Особиста оцінка: 10 - рекомендую всім

ЗАЛИШАЙТЕСЬ ЯКОМОГА ДОВШЕ НА РОЗДАЧІ!

СКАЧАВ САМ - ДАЙ СКАЧАТИ ІНШИМ


Срібний реліз (на рейтинг впливає 50% завантаженого)
 Трекер:    Зареєстрований   

Завантажити / скачати фільм українською



відео для новачків



 Зареєстрований:   2013-08-24 18:34
 Розмір:   7.99 GB 
 Оцінка фільму:   7.4/10 (Голосів: 39)
   
Інші релізи
   Я, Робот / I, Robot [Open Matte] (2004) patriot2305  3 / 0   1.45 GB   2014-05-02 21:48 
   Я, Робот / I, Robot [Open Matte] (2004) 1080p Ukr/Eng | sub Ukr/Eng igor911  2 / 0   15.58 GB   2013-08-24 19:42 
   Я, Робот / I, Robot (2004) Ukr/Eng xslim  2 / 0   2.18 GB   2011-04-25 07:45 
Anonymous 







2013-08-24 18:42  
ratbol 
Модератор HD


З нами з: 03.02.09
Востаннє: 09.12.16
Повідомлень: 1088

2013-08-24 19:37  
igor911 написано:
бітрейт: 8686 кб/с

Купили новий хард чи тестуєте нове інтернет з’єднання?
Вибачаюсь за флуд звичайно, але я був дуже здивований таким релізом від вас, а ще більше наступним запланованим. Happy

sergiyko 
Забанено
Забанено


З нами з: 17.06.08
Востаннє: 13.10.13
Повідомлень: 259

2013-08-24 19:40  
Якесь нове віяння часу, обрізане відео з боків!? Кадр фільму повинен бути таким як задумано творцем. Все що не вписується в норму - для індивідуального користування. І не має бути присутнє на трекері - моя думка.
Anonymous 







2013-08-24 20:00  
Відео з ліцензійного блу-рея. Обрізані голови у відео з AR=2,40 - теж задумка творця?

Додано через 2 хвилини 59 секунд:

ratbol написано:
Купили новий хард чи тестуєте нове інтернет з’єднання?

І те і інше. На роботі сервер поповнився на 3 ТБ, а інтернет канал збільшився до симетричних 10 Мбіт/с.

sergiyko 
Забанено
Забанено


З нами з: 17.06.08
Востаннє: 13.10.13
Повідомлень: 259

2013-08-24 20:14  
Так тут просто інша версія блюрея з відношенням сторін AR 1.78:1. Так треба і писати.
Anonymous 







2013-08-24 20:23  
sergiyko написано:
Так треба і писати.

Так і записано - читайте опис.

Yaroslavovy4 
Свій


З нами з: 25.03.12
Востаннє: 07.12.16
Повідомлень: 96

2013-08-25 15:01  
супер)) дуже класний фільм
fl_fl 
Відео Гуртом - фільмокрай
Відео Гуртом - фільмокрай


З нами з: 26.05.09
Востаннє: 09.12.16
Повідомлень: 3047

2014-04-21 23:52  
igor911 написано:
і один жіночий голос

Олена Бліннікова.
На 1+1 показують зараз із цим перекладом.

Anonymous 







2014-04-22 00:03  
fl_fl написано:
Олена Бліннікова

додав

Ваш часовий пояс: GMT + 2 Години

Нова тема   Відповісти