Завантажити та скачати торренти українською


Парочка копів / Cop Out (2010) 720p-mini

Нові коментарі

Нова тема   Відповісти
Автор Повідомлення
Drool 
VIP


З нами з: 17.04.10
Востаннє: 07.12.16
Повідомлень: 1266

2013-08-23 12:13  
Парочка копів / Cop Out (2010) 720p-mini

Жанр: бойовик, комедія, кримінал
Країна: США



Кінокомпанія: Warner Bros. Pictures
Режисер: Кевін Сміт
Актори: Брюс Уілліс, Трейсі Морґан, Шон Вільям Скотт, Хуан Карлос Хернандес, Корі Фернандес, Кевін Полак

Сюжет:
Комедія про пригоди парочки копів. Пошуки вкраденої, при цьому вельми цінної бейсбольної картки приводять до "розборок" з одержимим гангстером-фетишистом і порятунку красуні-мексиканки, в якої знаходиться ключ до мільйонів доларів, відмитих наркомафією. І це ще не все!


Тривалість: 01:47:29
Якість: 720p-mini
Відео:
кодек:
розмір кадру: 1280x534
бітрейт: 2542 кб/с

Аудіо:
мова: українська
переклад: професійний дубльований
кодек: 5.1
бітрейт: 384 кб/с

Джерело озвучення:


Субтитри 1:
мова: українська
тип: програмні (м'які) форсовані, на іспанську мову (завантажити окремо)
формат: *.srt

Субтитри 2:
мова: англійська
тип: жорсті (вшиті), на іспанську мову
MediaInfo
General
Unique ID : 21658790473712064533019508561407188486 (0x104B54D0F202D373F9FA46C803F51E06)
Complete name : /mnt/disk/Video/Cop.Out.2010.Ukr.Dub..720.UAGet.mkv
Format : Matroska
File size : 2.20 GiB
Duration : 1h 47mn
Overall bit rate : 2 926 Kbps
Movie name : Парочка копів / Cop Out (2010) 720p -=UAGet=-
Encoded date : UTC 2013-08-23 09:00:44
Writing application : mkvmerge v4.8.0 ('I Got The...') сборка от Aug 22 2011 13:16:28
Writing library : libebml v1.2.0 + libmatroska v1.1.0

Video
ID : 1
Format : AVC
Format/Info : Advanced Video Codec
Format profile : [email protected]
Format settings, CABAC : Yes
Format settings, ReFrames : 8 frames
Codec ID : V_MPEG4/ISO/AVC
Duration : 1h 47mn
Bit rate : 2 542 Kbps
Width : 1 280 pixels
Height : 534 pixels
Display aspect ratio : 2.35:1
Frame rate : 23.976 fps
Color space : YUV
Chroma subsampling : 4:2:0
Bit depth : 8 bits
Scan type : Progressive
Bits/(Pixel*Frame) : 0.155
Stream size : 1.87 GiB (85%)
Title : Парочка копів / Cop Out (2010) 720p -=UAGet=-
Writing library : core 130 r2273 b3065e6
Encoding settings : cabac=1 / ref=9 / deblock=1:-3:-3 / analyse=0x3:0x133 / me=umh / subme=11 / psy=1 / psy_rd=1.00:0.20 / mixed_ref=1 / me_range=32 / chroma_me=1 / trellis=2 / 8x8dct=1 / cqm=0 / deadzone=21,11 / fast_pskip=0 / chroma_qp_offset=-3 / threads=6 / lookahead_threads=1 / sliced_threads=0 / nr=0 / decimate=1 / interlaced=0 / bluray_compat=0 / constrained_intra=0 / bframes=9 / b_pyramid=1 / b_adapt=2 / b_bias=0 / direct=3 / weightb=1 / open_gop=0 / weightp=2 / keyint=240 / keyint_min=24 / scenecut=40 / intra_refresh=0 / rc=2pass / mbtree=0 / bitrate=2542 / ratetol=1.0 / qcomp=1.00 / qpmin=0 / qpmax=69 / qpstep=4 / cplxblur=20.0 / qblur=0.5 / ip_ratio=1.40 / pb_ratio=1.30 / aq=2:0.60
Color primaries : BT.709-5, BT.1361, IEC 61966-2-4, SMPTE RP177
Transfer characteristics : BT.709-5, BT.1361
Matrix coefficients : BT.709-5, BT.1361, IEC 61966-2-4 709, SMPTE RP177

Audio
ID : 2
Format : AC-3
Format/Info : Audio Coding 3
Mode extension : CM (complete main)
Codec ID : A_AC3
Duration : 1h 47mn
Bit rate mode : Constant
Bit rate : 384 Kbps
Channel(s) : 6 channels
Channel positions : Front: L C R, Side: L R, LFE
Sampling rate : 48.0 KHz
Bit depth : 16 bits
Compression mode : Lossy
Delay relative to video : 900ms
Stream size : 295 MiB (13%)
Title : Рідна мова
Language : Ukrainian

Text
ID : 3
Format : UTF-8
Codec ID : S_TEXT/UTF8
Codec ID/Info : UTF-8 Plain Text
Title : Українські (форсовані) [переклад з російської - Drool]
Language : Ukrainian
Порівняння скріншотів Remux 1080p vs 720p-mini










Скріншоти








Реліз від:
Особиста оцінка: 10 - без зайвих вагань рекомендую всім!


 Трекер:    Зареєстрований   

Завантажити / скачати фільм українською



відео для новачків



 Зареєстрований:   2013-08-23 12:13
 Розмір:   2.2 GB 
 Оцінка фільму:   7/10 (Голосів: 3)
   
Інші релізи
   Парочка копів / Cop Out (2010) 2xUkr patriot2305  16 / 2   1.61 GB   2013-08-17 20:38 
   Парочка копів / Cop Out (2010) 2xUkr/Eng BASTERD-94  0 / 0   2.18 GB   2012-08-15 20:00 
   Парочка копів / Cop Out (2010) 720p Ukr/Eng | Sub Eng SainTManiac  1 / 0   5.79 GB   2010-08-20 02:06 
Drool 
VIP


З нами з: 17.04.10
Востаннє: 07.12.16
Повідомлень: 1266

2013-08-23 13:21  
Українські субтитри робив я, з форсованих російський. Тому люпцювати за них можна безпосередньо мене. Завантажити їх можна тут.
olyx 
Відео Гуртом - підтримка та поширення
Відео Гуртом - підтримка та поширення


З нами з: 25.01.10
Востаннє: 05.10.16
Повідомлень: 231

2013-08-24 08:15  
А з якого переляку даному релізу було надано статус золотого???
olyx 
Відео Гуртом - підтримка та поширення
Відео Гуртом - підтримка та поширення


З нами з: 25.01.10
Востаннє: 05.10.16
Повідомлень: 231

2013-08-24 18:57  
А чому до присвоєння відповідно металу модератори так безвідповідально ставляться? Це вже не поодинокі випадки...
imonko 
Відео Гуртом - фільмокрай
Відео Гуртом - фільмокрай


З нами з: 20.07.08
Востаннє: 31.10.16
Повідомлень: 7309

2013-12-30 23:04  
Drool написано:
Тому люпцювати за них можна безпосередньо мене.

спочатку перезалий їх кудись, бо вже не активно, а потім і полупцюємо))

Drool 
VIP


З нами з: 17.04.10
Востаннє: 07.12.16
Повідомлень: 1266

2014-01-03 14:52  
imonko написано:
спочатку перезалий їх кудись, бо вже не активно, а потім і полупцюємо))

Перезалив Happy

Ваш часовий пояс: GMT + 2 Години

Нова тема   Відповісти