Завантажити та скачати торренти українською


Суп з капусти / La soupe aux choux (1981) 720p Ukr/Fre

Нові коментарі

Нова тема   Відповісти
Автор Повідомлення
Anonymous 







2013-08-22 14:44  
Суп з капусти / La soupe aux choux (1981) 720p Ukr/Fre



Жанр: фантастика, комедія
Країна: Франція



Кінокомпанія: Films A2, Les Films Christian Fechner
Режисер: Жан Жиро / Jean Girault
Актори: Луї Де Фюнес / Louis de Funès, Жан Карме / Jean Carmet, Жак Вільре / Jacques Villeret, Клод Жансак / Claude Gensac

Сюжет:
В містечку Ле Ґурдіфло живуть два старі друзі - горбань Франсис Шераз (Жан Карме) і Ґлод Ратіньє (Луї Де Фюнес), п'ють колодязну воду, червоне вино і вирощують капусту для свого фірмового супу. Якось вночі перед їхнім двором приземляється літаюча тарілка. Гуманоїд прямує до будинку Ґлода, де той його пригощає супом з капусти. Суп настільки сподобався прибульцю, що він починає відвідувати Ратіньє час від часу, підносячи Ґлоду різні неймовірні подарунки.


Тривалість: 01:37:47
Якість:
Відео:
кодек:
розмір кадру: 1280х720 (1280х544 без чорних смуг)
бітрейт: 4000 кб/с

Аудіо # 1:
мова: українська
переклад: двоголосий закадровий
Ролі озвучили: Олег Лепенець та Лідія Муращенко
кодек: 2.0
бітрейт: 192 кб/с

Аудіо # 2:
мова: французька
переклад: оригінал
кодек: 2.0
бітрейт: 192 кб/с
MediaInfo
General
Unique ID : 214722809906171723532785235176259020610 (0xA18A1BE31B5E71F58F8D7786F6BF6742)
Complete name : La.soupe.aux.choux.1981..720p.Ukr.Fre.mkv
Format : Matroska
Format version : Version 4 / Version 2
File size : 3.00 GiB
Duration : 1h 37mn
Overall bit rate : 4 386 Kbps
Movie name : Суп з капусти / La soupe aux choux / Суп с капустой (1981)
Encoded date : UTC 2013-08-22 09:55:13
Writing application : mkvmerge v6.3.0 ('You can't stop me!') built on Jun 28 2013 20:09:41
Writing library : libebml v1.3.0 + libmatroska v1.4.0

Video
ID : 1
Format : AVC
Format/Info : Advanced Video Codec
Format profile : [email protected]
Format settings, CABAC : Yes
Format settings, ReFrames : 2 frames
Codec ID : V_MPEG4/ISO/AVC
Duration : 1h 37mn
Bit rate : 4 000 Kbps
Width : 1 280 pixels
Height : 720 pixels
Display aspect ratio : 16:9
Frame rate mode : Constant
Frame rate : 25.000 fps
Color space : YUV
Chroma subsampling : 4:2:0
Bit depth : 8 bits
Scan type : Progressive
Bits/(Pixel*Frame) : 0.174
Stream size : 2.67 GiB (89%)
Title : Суп з капусти / La soupe aux choux / Суп с капустой (1981) 720p [kinozal.tv-Знаменосец]
Writing library : core 130 r2273
Encoding settings : cabac=1 / ref=2 / deblock=1:0:0 / analyse=0x1:0x131 / me=hex / subme=7 / psy=1 / psy_rd=1.00:0.00 / mixed_ref=0 / me_range=16 / chroma_me=1 / trellis=1 / 8x8dct=0 / cqm=0 / deadzone=21,11 / fast_pskip=1 / chroma_qp_offset=-2 / threads=12 / lookahead_threads=2 / sliced_threads=0 / nr=0 / decimate=1 / interlaced=0 / bluray_compat=0 / constrained_intra=0 / bframes=3 / b_pyramid=0 / b_adapt=1 / b_bias=0 / direct=3 / weightb=1 / open_gop=0 / weightp=2 / keyint=250 / keyint_min=25 / scenecut=40 / intra_refresh=0 / rc_lookahead=40 / rc=2pass / mbtree=1 / bitrate=4000 / ratetol=1.0 / qcomp=0.60 / qpmin=10 / qpmax=69 / qpstep=4 / cplxblur=20.0 / qblur=0.5 / vbv_maxrate=24000 / vbv_bufsize=24000 / nal_hrd=none / ip_ratio=1.40 / aq=1:1.00
Language : German
Default : Yes
Forced : No

Audio #1
ID : 2
Format : AC-3
Format/Info : Audio Coding 3
Mode extension : CM (complete main)
Format settings, Endianness : Big
Codec ID : A_AC3
Duration : 1h 37mn
Bit rate mode : Constant
Bit rate : 192 Kbps
Channel(s) : 2 channels
Channel positions : Front: L R
Sampling rate : 48.0 KHz
Bit depth : 16 bits
Compression mode : Lossy
Delay relative to video : -40ms
Stream size : 134 MiB (4%)
Title : DVO [2plus2] 2.0 192 kbps [Hurtom-Bulka27]
Language : Ukrainian
Default : Yes
Forced : No

Audio #2
ID : 3
Format : AC-3
Format/Info : Audio Coding 3
Mode extension : CM (complete main)
Format settings, Endianness : Big
Codec ID : A_AC3
Duration : 1h 37mn
Bit rate mode : Constant
Bit rate : 192 Kbps
Channel(s) : 2 channels
Channel positions : Front: L R
Sampling rate : 48.0 KHz
Bit depth : 16 bits
Compression mode : Lossy
Delay relative to video : -5ms
Stream size : 134 MiB (4%)
Title : Original
Language : French
Default : No
Forced : No


Джерела та подяки: ріп відео, оригінальні звук - Знамєносєц (кінозал); українська доріжка - Bulka27 - зведення, MAKAPOHHIK, OlegCena - запис з ТБ (всі - Гуртом).

ЗАЛИШАЙТЕСЬ ЯКОМОГА ДОВШЕ НА РОЗДАЧІ!

СКАЧАВ САМ - ДАЙ СКАЧАТИ ІНШИМ


Срібний реліз (на рейтинг впливає 50% завантаженого)
 Трекер:    Зареєстрований   

Завантажити / скачати фільм українською



відео для новачків



 Зареєстрований:   2013-08-22 14:44
 Розмір:   3 GB 
 Оцінка фільму:   4.4/10 (Голосів: 16)
   
Інші релізи
   Суп з капусти / La soupe aux choux (1981) Ukr/Fra yuranako  2 / 1   1.59 GB   2014-08-16 12:58 
Ваш часовий пояс: GMT + 2 Години

Нова тема   Відповісти