Завантажити та скачати торренти українською


Поцілунок дракона / Kiss of the Dragon (2001) 720p Ukr/Eng | Sub Eng

Нові коментарі

Нова тема   Відповісти
Останній раз роздавалося predators (2016-12-01)
Автор Повідомлення
Anonymous 







2013-08-21 10:52  
Поцілунок дракона / Kiss of the Dragon (2001) 720p Ukr/Eng | Sub Eng



Альтернативний постер


Жанр: бойовик, трилер, кримінальний
Країна: Франція, США



Кінокомпанія: Twentieth Century Fox Film Corporation, EuropaCorp, Quality Growth International Ltd.
Режисер: Кріс Наон / Chris Nahon
Актори: Джет Лі / Jet Li, Бріджет Фонда / Bridget Fonda, Чекі Каріо / Tchéky Karyo, Барт Куок / Burt Kwouk, Лоренс Ешлі / Laurence Ashley, Рік Янг / Ric Young, Сіріл Раффаеллі / Cyril Raffaelli та інші

Сюжет:
Офіцер китайської розвідки Лю Дзян (Джет Лі) приїжджає з Гонконгу до Парижа для участі у небезпечній операції по затриманню ватажка китайської мафії. Але весь план іде шкереберть. Він стає жертвою підстави з боку оборотнів у погонах - поліція звинувачує його у вбивстві і має переконливі докази.
Втікши з місця злочину з касетою з камери відеоспостереження, здатною довести його невинність, Лю ховається в магазині свого дядька, і натрапляє на місцеву повію, яка була присутня на місці вбивства і може дати свідчення на його користь ...


рейтинг MPAA: R - особам до 17 років обов'язкова присутність батьків або дорослого опікуна
Вікова категорія: 16+

Тривалість: 01:38:13
Якість: 720p
Відео:
кодек:
розмір кадру: 1280x542
бітрейт: 4671 кб/с

Аудіо # 1:
мова: українська - Студія "ТВ+" на замовлення
переклад: багатоголосий закадровий
Ролі озвучили: Михайло Жонін (Джет Лі / Лю Дзян), Євген Пашин (Чекі Каріо / інспектор Річард) і Людмила Ардельян
кодек: 5.1
бітрейт: 448 кб/с

Аудіо # 2:
мова: англійська
переклад: оригінал
кодек: 5.1
бітрейт: 448 кб/с

Субтитри:
мова: англійська
тип: програмні (м'які)
формат: *.srt

Збережено оригінальні розділи, як на Blu-ray.
MediaInfo та
frame I:1224 Avg QP:14.72 size: 89022
frame P:30682 Avg QP:16.95 size: 37472
frame B:109402 Avg QP:18.25 size: 19927
=================================================================================
General
Unique ID : 199462863471305125531414211872141314902 (0x960F2670933F1A0E8D3B75181E478B56)
Complete name : Kiss.of.the.Dragon.2001..720p.Ukr.Eng.[sub.Eng].mkv
Format : Matroska
Format version : Version 4 / Version 2
File size : 3.82 GiB
Duration : 1h 38mn
Overall bit rate : 5 562 Kbps
Movie name : Поцілунок дракона / Kiss of the Dragon / Поцелуй дракона (2001)
Encoded date : UTC 2013-08-21 07:25:43
Writing application : mkvmerge v6.3.0 ('You can't stop me!') built on Jun 28 2013 20:09:41
Writing library : libebml v1.3.0 + libmatroska v1.4.0

Video
ID : 1
Format : AVC
Format/Info : Advanced Video Codec
Format profile : [email protected]
Format settings, CABAC : Yes
Format settings, ReFrames : 9 frames
Codec ID : V_MPEG4/ISO/AVC
Duration : 1h 38mn
Bit rate : 4 671 Kbps
Width : 1 280 pixels
Height : 542 pixels
Display aspect ratio : 2.35:1
Frame rate mode : Constant
Frame rate : 23.976 fps
Color space : YUV
Chroma subsampling : 4:2:0
Bit depth : 8 bits
Scan type : Progressive
Bits/(Pixel*Frame) : 0.281
Stream size : 3.13 GiB (82%)
Title : Поцілунок дракона / Kiss of the Dragon / Поцелуй дракона (2001) [big1987]
Writing library : core 122 r2184 5c85e0a
Encoding settings : cabac=1 / ref=9 / deblock=1:-3:-3 / analyse=0x3:0x133 / me=umh / subme=10 / psy=1 / psy_rd=1.00:0.20 / mixed_ref=1 / me_range=48 / chroma_me=1 / trellis=2 / 8x8dct=1 / cqm=0 / deadzone=21,11 / fast_pskip=1 / chroma_qp_offset=-3 / threads=6 / sliced_threads=0 / nr=0 / decimate=1 / interlaced=0 / bluray_compat=0 / constrained_intra=0 / bframes=8 / b_pyramid=2 / b_adapt=2 / b_bias=0 / direct=3 / weightb=1 / open_gop=0 / weightp=2 / keyint=250 / keyint_min=23 / scenecut=40 / intra_refresh=0 / rc_lookahead=60 / rc=2pass / mbtree=1 / bitrate=4671 / ratetol=1.0 / qcomp=0.60 / qpmin=0 / qpmax=69 / qpstep=4 / cplxblur=20.0 / qblur=0.5 / ip_ratio=1.40 / aq=1:1.00
Language : English
Default : Yes
Forced : No

Audio #1
ID : 2
Format : AC-3
Format/Info : Audio Coding 3
Mode extension : CM (complete main)
Format settings, Endianness : Big
Codec ID : A_AC3
Duration : 1h 38mn
Bit rate mode : Constant
Bit rate : 448 Kbps
Channel(s) : 6 channels
Channel positions : Front: L C R, Side: L R, LFE
Sampling rate : 48.0 KHz
Bit depth : 16 bits
Compression mode : Lossy
Delay relative to video : 26s 3ms
Stream size : 315 MiB (8%)
Title : MVO [ICTV-TV+] 5.1 448 Kbps [Hurtom-JACKUS]
Language : Ukrainian
Default : Yes
Forced : No

Audio #2
ID : 3
Format : AC-3
Format/Info : Audio Coding 3
Mode extension : CM (complete main)
Format settings, Endianness : Big
Codec ID : A_AC3
Duration : 1h 38mn
Bit rate mode : Constant
Bit rate : 448 Kbps
Channel(s) : 6 channels
Channel positions : Front: L C R, Side: L R, LFE
Sampling rate : 48.0 KHz
Bit depth : 16 bits
Compression mode : Lossy
Stream size : 315 MiB (8%)
Title : Original 5.1 448 kbps
Language : English
Default : No
Forced : No

Text
ID : 4
Format : UTF-8
Codec ID : S_TEXT/UTF8
Codec ID/Info : UTF-8 Plain Text
Title : Eng full
Language : English
Default : No
Forced : No

Menu
00:00:00.000 : en:Main Titles
00:04:36.526 : en:Mr. Smith
00:10:40.139 : en:Welcome to Paris
00:16:29.280 : en:A Situation
00:24:24.213 : en:Double-Crossed
00:27:12.214 : en:Into the Fire
00:32:15.600 : en:Gare De L'est
00:43:13.716 : en:Our Best Man
00:51:36.176 : en:The Farmer's Daughter
00:57:37.829 : en:A Kind Person
01:04:30.283 : en:The Tour Boat Trip
01:07:26.209 : en:On the Run
01:11:27.492 : en:Help From Jessica
01:14:19.497 : en:A Tough Client
01:18:23.449 : en:The Witness
01:21:52.950 : en:Trust
01:28:46.905 : en:Jessica's Escape
01:31:51.715 : en:The Orphanage
01:33:22.972 : en:Liu Jian's Promise


Джерела та подяки: ріп відео, оригінальний звук - big1987 (рутрекер); українська доріжка - JACKUS - зведення, Romario_O - запис з ТБ; український постер - dr_stas (всі - Гуртом).

Особиста оцінка: 8 - мені сподобалося

ЗАЛИШАЙТЕСЬ ЯКОМОГА ДОВШЕ НА РОЗДАЧІ!

СКАЧАВ САМ - ДАЙ СКАЧАТИ ІНШИМ


Срібний реліз (на рейтинг впливає 50% завантаженого)
 Трекер:    Зареєстрований   

Завантажити / скачати фільм українською



відео для новачків



 Зареєстрований:   2013-08-21 10:52
 Розмір:   3.82 GB 
 Оцінка фільму:   2.5/10 (Голосів: 12)
   
Інші релізи
Ваш часовий пояс: GMT + 2 Години

Нова тема   Відповісти