Завантажити та скачати торренти українською


Шафт / Детектив Шафт / Shaft (2000) 1080p 2xUkr/Eng | Sub Eng

Нові коментарі

Нова тема   Відповісти
Автор Повідомлення
Anonymous 







2013-08-19 19:39  
Шафт / Детектив Шафт / Shaft (2000) 1080p 2xUkr/Eng | Sub Eng



Альтернативний постер



Жанр: бойовик, трилер, кримінальний
Країна: Німеччина, США



Кінокомпанія: Munich Film Partners & Company (MFP) Shaft Productions, New Deal Productions, Paramount Pictures
Режисер: Джон Синглтон / John Singleton
Актори: Семюель Л. Джексон / Samuel L. Jackson, Крістіан Бейл / Christian Bale, Ванеса Вільямс / Vanessa Williams, Джефрі Райт / Jeffrey Wright, Баста Раймз / Busta Rhymes, Ден Хедайя / Dan Hedaya, Річард Раундтрі / Richard Roundtree та інші

Сюжет:
Всі знають, що детектив Джон Шафт - найкрутіший поліцейський у місті. Деякі вважають, що його жорстокі методи роботи з криміналом не виправдані. Але це не так.

Просто Джон один з тих людей у цьому занепалому місті, хто ще не забув, що таке Справедливість! Ось за цю саму Справедливість Шафт і буде битися до кінця.

Нести нелегку службу Шафту допомагає дядько - поліцейський у відставці, у якого в молодості всі бандити «стояли на вухах" і якому сам король диско, Айзік Хейс присвятив свою пісню.

На цей раз Шафту дісталася складна справа. Джону потрібно посадити за грати безжалісного вбивцю і знайти єдиного свідка, який йому в цьому допоможе...


рейтинг MPAA: R - особам до 17 років обов'язкова присутність батьків або дорослого опікуна
Вікова категорія: 16+

Тривалість: 01:39:19
Якість: 1080p
Відео:
кодек:
розмір кадру: 1918x802
бітрейт: 9798 кб/с

Аудіо # 1:
мова: українська
переклад: багатоголосий закадровий
кодек: 2.0
бітрейт: 192 кб/с

Аудіо # 2:
мова: українська
переклад: двоголосий закадровий
кодек: 2.0
бітрейт: 192 кб/с

Аудіо # 3:
мова: англійська
переклад: оригінал
кодек: 5.1
бітрейт: 448 кб/с

Субтитри:
мова: англійська
тип: програмні (м'які)
формат: *.srt

Збережено оригінальні розділи, як на Blu-ray.
MediaInfo та
[info]: frame I:1118 Avg QP:16.40 size:160189
[info]: frame P:35341 Avg QP:19.01 size: 84427
[info]: frame B:106415 Avg QP:21.34 size: 38811
==================================================================================
General
Unique ID : 243273274447860426506628129711634161330 (0xB704BA77F3CA00C59064EA36D4BA9EB2)
Complete name : Shaft.2000..1080р.2xUkr.Eng.[sub.Eng].mkv
Format : Matroska
Format version : Version 4 / Version 2
File size : 7.37 GiB
Duration : 1h 39mn
Overall bit rate : 10.6 Mbps
Encoded date : UTC 2013-08-19 13:06:54
Writing application : mkvmerge v6.3.0 ('You can't stop me!') built on Jun 28 2013 20:09:41
Writing library : libebml v1.3.0 + libmatroska v1.4.0

Video
ID : 1
Format : AVC
Format/Info : Advanced Video Codec
Format profile : [email protected]
Format settings, CABAC : Yes
Format settings, ReFrames : 4 frames
Codec ID : V_MPEG4/ISO/AVC
Duration : 1h 39mn
Bit rate : 9 798 Kbps
Width : 1 918 pixels
Height : 802 pixels
Display aspect ratio : 2.40:1
Frame rate mode : Constant
Frame rate : 23.976 fps
Color space : YUV
Chroma subsampling : 4:2:0
Bit depth : 8 bits
Scan type : Progressive
Bits/(Pixel*Frame) : 0.266
Stream size : 6.65 GiB (90%)
Title : Шафт / Детектив Шафт / Shaft (2000) [Freeisland-taty75]
Writing library : core 135 r2345 f0c1c53
Encoding settings : cabac=1 / ref=4 / deblock=1:-1:-1 / analyse=0x3:0x133 / me=umh / subme=10 / psy=1 / psy_rd=1.00:0.00 / mixed_ref=1 / me_range=32 / chroma_me=1 / trellis=2 / 8x8dct=1 / cqm=0 / deadzone=21,11 / fast_pskip=0 / chroma_qp_offset=-2 / threads=6 / lookahead_threads=1 / sliced_threads=0 / nr=0 / decimate=1 / interlaced=0 / bluray_compat=0 / constrained_intra=0 / bframes=10 / b_pyramid=2 / b_adapt=2 / b_bias=0 / direct=3 / weightb=1 / open_gop=0 / weightp=2 / keyint=240 / keyint_min=24 / scenecut=40 / intra_refresh=0 / rc_lookahead=50 / rc=2pass / mbtree=0 / bitrate=9798 / ratetol=2.0 / qcomp=1.00 / qpmin=0 / qpmax=51 / qpstep=4 / cplxblur=20.0 / qblur=0.5 / vbv_maxrate=50000 / vbv_bufsize=55000 / nal_hrd=none / ip_ratio=1.40 / pb_ratio=1.30 / aq=1:1.00
Language : English
Default : Yes
Forced : No
Color primaries : BT.709
Transfer characteristics : BT.709
Matrix coefficients : BT.709

Audio #1
ID : 2
Format : AC-3
Format/Info : Audio Coding 3
Format profile : Dolby Digital
Mode extension : CM (complete main)
Format settings, Endianness : Big
Codec ID : A_AC3
Duration : 1h 39mn
Bit rate mode : Constant
Bit rate : 192 Kbps
Channel(s) : 2 channels
Channel positions : Front: L R
Sampling rate : 48.0 KHz
Bit depth : 16 bits
Compression mode : Lossy
Stream size : 136 MiB (2%)
Title : MVO [Inter] 2.0 192 kbps [Hurtom-bodia87]
Language : Ukrainian
Default : Yes
Forced : No

Audio #2
ID : 3
Format : AC-3
Format/Info : Audio Coding 3
Format profile : Dolby Digital
Mode extension : CM (complete main)
Format settings, Endianness : Big
Codec ID : A_AC3
Duration : 1h 39mn
Bit rate mode : Constant
Bit rate : 192 Kbps
Channel(s) : 2 channels
Channel positions : Front: L R
Sampling rate : 48.0 KHz
Bit depth : 16 bits
Compression mode : Lossy
Stream size : 136 MiB (2%)
Title : MVO [Novyj] 2.0 192 kbps [Hurtom-bodia87]
Language : Ukrainian
Default : No
Forced : No

Audio #3
ID : 4
Format : AC-3
Format/Info : Audio Coding 3
Mode extension : CM (complete main)
Format settings, Endianness : Big
Codec ID : A_AC3
Duration : 1h 39mn
Bit rate mode : Constant
Bit rate : 448 Kbps
Channel(s) : 6 channels
Channel positions : Front: L C R, Side: L R, LFE
Sampling rate : 48.0 KHz
Bit depth : 16 bits
Compression mode : Lossy
Stream size : 318 MiB (4%)
Title : Original
Language : English
Default : No
Forced : No

Text
ID : 5
Format : UTF-8
Codec ID : S_TEXT/UTF8
Codec ID/Info : UTF-8 Plain Text
Title : - US - SDH
Language : English
Default : No
Forced : No

Menu
00:00:00.000 : en:00:00:00.000
00:11:30.231 : en:00:11:30.231
00:13:33.146 : en:00:13:33.146
00:22:00.110 : en:00:22:00.110
00:27:03.747 : en:00:27:03.747
00:33:40.894 : en:00:33:40.894
00:44:14.443 : en:00:44:14.443
00:54:51.788 : en:00:54:51.788
01:02:57.065 : en:01:02:57.065
01:13:40.499 : en:01:13:40.499
01:22:05.295 : en:01:22:05.295
01:29:31.241 : en:01:29:31.241


Джерела та подяки: ріп відео, оригінальні звук та субтитри, українська доріжка (1) - taty75 (Freeisland); першоджерело українських доріжок - bodia87 - зведення, Hulk1987, ua2004, POMEO, OlegCena, ratbol - запис з ТБ (всі - Гуртом).

ЗАЛИШАЙТЕСЬ ЯКОМОГА ДОВШЕ НА РОЗДАЧІ!

СКАЧАВ САМ - ДАЙ СКАЧАТИ ІНШИМ


Срібний реліз (на рейтинг впливає 50% завантаженого)
 Трекер:    Зареєстрований   

Завантажити / скачати фільм українською



відео для новачків



 Зареєстрований:   2013-08-19 19:39
 Розмір:   7.37 GB 
 Оцінка фільму:   3.8/10 (Голосів: 15)
   
Інші релізи
   Шафт / Детектив Шафт / Shaft (2000) 2xUkr bodia87  3 / 0   1.46 GB   2013-07-19 14:56 
Ваш часовий пояс: GMT + 2 Години

Нова тема   Відповісти