Завантажити та скачати торренти українською


Старим тут не місце / No Country for Old Men (2007) 720p 2xUkr/Eng | Sub Ukr/Eng

Нові коментарі

Нова тема   Відповісти
Автор Повідомлення
aalleexx85 
Відео Гуртом - фільмокрай
Відео Гуртом - фільмокрай


З нами з: 27.07.10
Востаннє: 10.12.16
Повідомлень: 1139

2013-08-19 17:23  
Старим тут не місце / No Country for Old Men (2007) 720p 2xUkr/Eng | Sub Ukr/Eng

Старим тут не місце / No Country for Old Men (2007) 720p 2xUkr/Eng | Sub Ukr/Eng


There Are No Clean Getaways

Жанр: драма, трилер, кримінальний
Країна: USA



Кіностудія / кінокомпанія: Paramount Vantage, Miramax Films, Scott Rudin Productions
Режисер: Ітан Коен, Джоел Коен
Актори: Томмі Лі Джонс, Хав'єр Бардем, Джош Бролін, Вуді Харрельсон, Келлі Макдоналд, Гаррет Діллахант, Тесс Харпер, Беррі Корбін, Стівен Рут, Роджер Бойс

Сюжет:
Звичайний роботяга знаходить в пустелі гору трупів, вантажівку, набиту героїном, і спокусливу суму у два мільйони доларів, готівкою. Він вирішує взяти гроші собі, і результатом стає хвиля насильства, яку не може зупинити вся поліція Західного Техасу.


Тривалість: 02:02:10
Якість:
Відео:
кодек:
розмір кадру: 1280x544
бітрейт: 3840 кб/с

Аудіо # 1:
мова: українська
переклад: багатоголосий закадровий
кодек: 5.1
бітрейт: 448 кб/с
синхронізація - Romario_O

Аудіо # 2:
мова: українська
переклад: багатоголосий закадровий (Tak Treba Production)
кодек: 2.0
бітрейт: 192 кб/с

Аудіо # 3:
мова:англійська
переклад: оригінал
кодек: 5.1
бітрейт: 448 кб/с

Субтитри # 1#:
мова: українська
тип: програмні (м'які)
формат: *.rt

Субтитри #2:
мова: англійська
тип: програмні (м'які)
формат: *.rt

запис звуку - MAKAPOHHIK, nick_89
MediaInfo
General
Unique ID : 248013492393282279445335782473321995184 (0xBA95A941DCBAE7D7B7C279C97F5CDBB0)
Complete name : G:\Video\Drama\No Country for Old Men (2007) [2xukr,eng] 720p [Hurtom].mkv
Format : Matroska
Format version : Version 2
File size : 4.21 GiB
Duration : 2h 2mn
Overall bit rate : 4 928 Kbps
Movie name : No Country for Old Men (2007) [2xukr,eng] 720p [Hurtom]
Encoded date : UTC 2013-08-17 14:40:17
Writing application : mkvmerge v4.9.1 ('Ich will') зібрано Jul 11 2011 23:53:15
Writing library : libebml v1.2.1 + libmatroska v1.1.1

Video
ID : 1
Format : AVC
Format/Info : Advanced Video Codec
Format profile : [email protected]
Format settings, CABAC : Yes
Format settings, ReFrames : 11 frames
Codec ID : V_MPEG4/ISO/AVC
Duration : 2h 2mn
Bit rate : 3 840 Kbps
Width : 1 280 pixels
Height : 544 pixels
Display aspect ratio : 2.35:1
Frame rate : 23.976 fps
Color space : YUV
Chroma subsampling : 4:2:0
Bit depth : 8 bits
Scan type : Progressive
Bits/(Pixel*Frame) : 0.230
Stream size : 3.19 GiB (76%)
Title : No Country for Old Men (2007) [2xukr,eng] 720p [Hurtom]
Writing library : core 112 r1834 a51816a
Encoding settings : cabac=1 / ref=11 / deblock=1:-3:-3 / analyse=0x3:0x113 / me=esa / subme=10 / psy=1 / psy_rd=1.00:0.00 / mixed_ref=1 / me_range=32 / chroma_me=1 / trellis=2 / 8x8dct=1 / cqm=0 / deadzone=21,11 / fast_pskip=0 / chroma_qp_offset=-2 / threads=12 / sliced_threads=0 / nr=0 / decimate=1 / interlaced=0 / constrained_intra=0 / bframes=10 / b_pyramid=2 / b_adapt=2 / b_bias=0 / direct=3 / weightb=1 / open_gop=0 / weightp=2 / keyint=250 / keyint_min=23 / scenecut=40 / intra_refresh=0 / rc_lookahead=60 / rc=2pass / mbtree=0 / bitrate=3840 / ratetol=1.0 / qcomp=0.60 / qpmin=10 / qpmax=51 / qpstep=4 / cplxblur=20.0 / qblur=0.5 / vbv_maxrate=50000 / vbv_bufsize=62500 / ip_ratio=1.40 / pb_ratio=1.30 / aq=1:1.00 / nal_hrd=none
Language : English
Default : Yes
Forced : No
Matrix coefficients : BT.709-5, BT.1361, IEC 61966-2-4 709, SMPTE RP177

Audio #1
ID : 2
Format : AC-3
Format/Info : Audio Coding 3
Mode extension : CM (complete main)
Codec ID : A_AC3
Duration : 2h 2mn
Bit rate mode : Constant
Bit rate : 448 Kbps
Channel(s) : 6 channels
Channel positions : Front: L C R, Side: L R, LFE
Sampling rate : 48.0 KHz
Bit depth : 16 bits
Compression mode : Lossy
Stream size : 391 MiB (9%)
Title : ICTV
Language : Ukrainian
Default : Yes
Forced : No

Audio #2
ID : 3
Format : AC-3
Format/Info : Audio Coding 3
Mode extension : CM (complete main)
Codec ID : A_AC3
Duration : 2h 2mn
Bit rate mode : Constant
Bit rate : 192 Kbps
Channel(s) : 2 channels
Channel positions : Front: L R
Sampling rate : 48.0 KHz
Bit depth : 16 bits
Compression mode : Lossy
Stream size : 168 MiB (4%)
Title : Tak Treba Production
Language : Ukrainian
Default : No
Forced : No

Audio #3
ID : 4
Format : AC-3
Format/Info : Audio Coding 3
Mode extension : CM (complete main)
Codec ID : A_AC3
Duration : 2h 2mn
Bit rate mode : Constant
Bit rate : 448 Kbps
Channel(s) : 6 channels
Channel positions : Front: L C R, Side: L R, LFE
Sampling rate : 48.0 KHz
Bit depth : 16 bits
Compression mode : Lossy
Stream size : 391 MiB (9%)
Title : Original
Language : English
Default : No
Forced : No

Text #1
ID : 5
Format : UTF-8
Codec ID : S_TEXT/UTF8
Codec ID/Info : UTF-8 Plain Text
Language : English
Default : No
Forced : No

Text #2
ID : 6
Format : UTF-8
Codec ID : S_TEXT/UTF8
Codec ID/Info : UTF-8 Plain Text
Language : Ukrainian
Default : Yes
Forced : No

Menu
00:00:00.000 : en:Old Timers
00:03:44.474 : en:Last Man Standing
00:13:41.904 : en:The Getting Place
00:20:50.416 : en:Call It, Friend-O
00:27:52.838 : en:Deal Gone Wrong
00:36:58.383 : en:Jackpot
00:41:52.427 : en:Another Additional Room
00:52:17.051 : en:On All Night
01:04:59.312 : en:Medico
01:13:08.801 : en:Ultimate Badass
01:20:05.801 : en:The Best Deal
01:27:35.876 : en:The One Right Tool
01:34:35.128 : en:What's Coming
01:42:21.010 : en:Overmatched
01:47:22.645 : en:Best I Can Do
01:56:32.652 : en:End Credits
Скріншоти:



Джерело:
Особиста оцінка: 10 - без зайвих вагань рекомендую всім!


 Трекер:    Зареєстрований   

Завантажити / скачати фільм українською



відео для новачків



 Зареєстрований:   2013-08-19 17:23
 Розмір:   4.21 GB 
 Оцінка фільму:   9.7/10 (Голосів: 24)
   
Leshchyshyn 
VIP


З нами з: 20.07.09
Востаннє: 02.12.16
Повідомлень: 470

2013-08-20 19:32  
Шикарний фільм, як і всі фільми братів Коенів =)
Рекомендую до перегляду!

PandaWCB 
Новенький


З нами з: 14.02.12
Востаннє: 08.12.16
Повідомлень: 15

2013-08-21 00:08  
+100500
Vert1go 
Частий відвідувач


З нами з: 03.09.13
Востаннє: 10.12.16
Повідомлень: 34

2013-11-01 21:58  
Справжній шедевр!
don pedro 
Попереджень: 1
Попереджень: 1 


З нами з: 29.06.11
Востаннє: 11.12.16
Повідомлень: 8780

2013-11-02 09:52  
З 14 листопада має вийти фільм Рідлі Скотта за сценарієм Кормака Маккарті (автора роману "Старим тут не місце") "Радник" (The Counselor ).
Ваш часовий пояс: GMT + 2 Години

Нова тема   Відповісти