Завантажити та скачати торренти українською


Кілька хороших хлопців / A Few Good Men (1992) 1080p 3xUkr/Eng | Sub Eng

Нові коментарі

Нова тема   Відповісти
Автор Повідомлення
Anonymous 







2013-08-16 20:16  
Кілька хороших хлопців / A Few Good Men (1992) 1080p 3xUkr/Eng | Sub Eng



Жанр: трилер, драма, кримінальний, детектив
Країна: США



Кінокомпанія: Castle Rock Entertainment, Columbia Pictures Corporation
Режисер: Роб Райнер / Rob Reiner
Актори: Том Круз / Tom Cruise, Джек Ніколсон / Jack Nicholson, Демі Мур / Demi Moore, Кевін Бейкон / Kevin Bacon, Кіфер Сазерленд / Kiefer Sutherland, Кевін Поллак / Kevin Pollak, Джеймс Маршалл / James Marshall, Джей Ті Волш / J.T. Walsh, Крістофер Густ / Christopher Guest, Дж. Е. Престон / J.A. Preston, Матт Крейвен / Matt Craven, Вольфґан Бадісон / Wolfgang Bodison, Ксандер Берклі / Xander Berkeley, Джон М . Джексон / John M. Jackson, Ноа Вайл / Noah Wyle

Сюжет:
Два морпіхи постають перед судом за незаконну розправу над своїм товаришем. Захищати їх випадає на долю молодого самовпевненого адвоката, який віддає перевагу бейсболу над жорсткими іграми закону.

Однак справа виявляється не такою простою, як йому здавалося, і він вирішує розкрити таємницю жорстоких вбивств і покарати тих, хто несе відповідальність за смерть солдата, чого б йому це не коштувало. Кинувши виклик сильним світу цього, він ризикує всім - своєю кар'єрою, спокійним існуванням, коханою жінкою і навіть життям, адже ті, у кого він став на шляху, не зупиняться ні перед чим.

Але щоб перемогти в цьому протистоянні, перш за все йому треба перемогти себе, свої найглибинніші страхи ...


рейтинг MPAA: R
Вікова категорія: 12+

Тривалість: 02:18:01
Якість: 1080p
Відео:
кодек:
розмір кадру: 1920х816
бітрейт: 9432 кб/с

Аудіо # 1:
мова: українська - Так Треба Продакшн на замовлення ТРК Україна
переклад: багатоголосий закадровий
Ролі озвучили: Владислав Пупков, Дмитро Терещук, Наталя Задніпровська і Юрій Ребрик
кодек: 2.0
бітрейт: 192 кб/с

Аудіо # 2:
мова: українська - Так Треба Продакшн на замовлення телекомпанії Інтер
переклад: багатоголосий закадровий
Ролі озвучили: Олег Стальчук, Анатолій Пашнін, Олена Бліннікова
кодек: 2.0
бітрейт: 192 кб/с

Аудіо # 3:
мова: українська
переклад: багатоголосий закадровий
кодек: 2.0
бітрейт: 192 кб/с
примітка: переклад аналогічний попереднім озвученням

Аудіо # 4:
мова: англійська
переклад: оригінал
кодек: 5.1
бітрейт: 640 кб/с

Субтитри:
мова: англійська
тип: програмні (м'які)
формат: *.srt
MediaInfo та log
Код:
Complete name               : A Few Good Men (1992) [3xUkr,Eng sub.Eng] 1080p [Hurtom].mkv
Format                      : Matroska
Format version              : Version 4 / Version 2
File size                   : 10.3 GiB
Duration                    : 2 h 18 min
Overall bit rate            : 10.6 Mb/s
Movie name                  : Кілька хороших хлопців / A Few Good Men (1992) [3xUkr,Eng sub.Eng] 1080p [Hurtom]
Writing library             : libebml v1.3.4 + libmatroska v1.4.5
Cover                       : Yes
Attachments                 : cover.jpg

Video
ID                          : 1
Format                      : AVC
Format/Info                 : Advanced Video Codec
Format profile              : [email protected]
Format settings, CABAC      : Yes
Format settings, ReFrames   : 5 frames
Codec ID                    : V_MPEG4/ISO/AVC
Duration                    : 2 h 18 min
Bit rate                    : 9 432 kb/s
Width                       : 1 920 pixels
Height                      : 816 pixels
Display aspect ratio        : 2.35:1
Frame rate mode             : Constant
Frame rate                  : 23.976 (24000/1001) FPS
Color space                 : YUV
Chroma subsampling          : 4:2:0
Bit depth                   : 8 bits
Scan type                   : Progressive
Bits/(Pixel*Frame)          : 0.251
Stream size                 : 9.09 GiB (89%)
Title                       : Кілька хороших хлопців / A Few Good Men / Несколько хороших парней (1992) [K.A.F.]
Writing library             : core 135 r2345 f0c1c53
Encoding settings           : cabac=1 / ref=5 / deblock=1:-3:-3 / analyse=0x3:0x133 / me=tesa / subme=11 / psy=1 / psy_rd=1.00:0.04 / mixed_ref=1 / me_range=32 / chroma_me=1 / trellis=2 / 8x8dct=1 / cqm=0 / deadzone=21,11 / fast_pskip=0 / chroma_qp_offset=-3 / threads=12 / lookahead_threads=1 / sliced_threads=0 / nr=0 / decimate=0 / interlaced=0 / bluray_compat=0 / constrained_intra=0 / bframes=4 / b_pyramid=2 / b_adapt=2 / b_bias=0 / direct=3 / weightb=1 / open_gop=0 / weightp=2 / keyint=230 / keyint_min=23 / scenecut=40 / intra_refresh=0 / rc=2pass / mbtree=0 / bitrate=9432 / ratetol=1.0 / qcomp=0.60 / qpmin=0 / qpmax=69 / qpstep=4 / cplxblur=20.0 / qblur=0.5 / ip_ratio=1.40 / pb_ratio=1.30 / aq=1:1.00
Language                    : English
Default                     : Yes
Forced                      : No

Audio #1
ID                          : 2
Format                      : AC-3
Format/Info                 : Audio Coding 3
Mode extension              : CM (complete main)
Format settings, Endianness : Big
Codec ID                    : A_AC3
Duration                    : 2 h 18 min
Bit rate mode               : Constant
Bit rate                    : 192 kb/s
Channel(s)                  : 2 channels
Channel positions           : Front: L R
Sampling rate               : 48.0 kHz
Frame rate                  : 31.250 FPS (1536 spf)
Compression mode            : Lossy
Stream size                 : 190 MiB (2%)
Title                       : MVO [Tak Treba Production - TRK Ukraina] 2.0 192 kbps [Hurtom-karvai0]
Language                    : Ukrainian
Default                     : Yes
Forced                      : No

Audio #2
ID                          : 3
Format                      : AC-3
Format/Info                 : Audio Coding 3
Mode extension              : CM (complete main)
Format settings, Endianness : Big
Codec ID                    : A_AC3
Duration                    : 2 h 18 min
Bit rate mode               : Constant
Bit rate                    : 192 kb/s
Channel(s)                  : 2 channels
Channel positions           : Front: L R
Sampling rate               : 48.0 kHz
Frame rate                  : 31.250 FPS (1536 spf)
Compression mode            : Lossy
Stream size                 : 190 MiB (2%)
Title                       : MVO [Tak Treba Production - Inter] 2.0 192 kbps [Hurtom-karvai0]
Language                    : Ukrainian
Default                     : No
Forced                      : No

Audio #3
ID                          : 4
Format                      : AC-3
Format/Info                 : Audio Coding 3
Mode extension              : CM (complete main)
Format settings, Endianness : Big
Codec ID                    : A_AC3
Duration                    : 2 h 17 min
Bit rate mode               : Constant
Bit rate                    : 192 kb/s
Channel(s)                  : 2 channels
Channel positions           : Front: L R
Sampling rate               : 48.0 kHz
Frame rate                  : 31.250 FPS (1536 spf)
Compression mode            : Lossy
Stream size                 : 189 MiB (2%)
Title                       : MVO [AMC] 2.0 192 kbps [Hurtom-Arsenfpu,Sando7]
Language                    : Ukrainian
Default                     : No
Forced                      : No

Audio #4
ID                          : 5
Format                      : AC-3
Format/Info                 : Audio Coding 3
Mode extension              : CM (complete main)
Format settings, Endianness : Big
Codec ID                    : A_AC3
Duration                    : 2 h 18 min
Bit rate mode               : Constant
Bit rate                    : 640 kb/s
Channel(s)                  : 6 channels
Channel positions           : Front: L C R, Side: L R, LFE
Sampling rate               : 48.0 kHz
Frame rate                  : 31.250 FPS (1536 spf)
Compression mode            : Lossy
Stream size                 : 632 MiB (6%)
Title                       : Original 5.1 640 kbps
Language                    : English
Default                     : No
Forced                      : No

Text
ID                          : 6
Format                      : UTF-8
Codec ID                    : S_TEXT/UTF8
Codec ID/Info               : UTF-8 Plain Text
Duration                    : 2 h 9 min
Bit rate                    : 86 b/s
Count of elements           : 1692
Stream size                 : 81.6 KiB (0%)
Title                       : Eng full
Language                    : English
Default                     : No
Forced                      : No

Menu
00:00:00.000                : en:
00:05:00.000                : en:
00:10:00.000                : en:
00:15:00.000                : en:
00:20:00.000                : en:
00:25:00.000                : en:
00:30:00.000                : en:
00:35:00.000                : en:
00:40:00.000                : en:
00:45:00.000                : en:
00:50:00.000                : en:
00:55:00.000                : en:
01:00:00.000                : en:
01:05:00.000                : en:
01:10:00.000                : en:
01:15:00.000                : en:
01:20:00.000                : en:
01:25:00.000                : en:
01:30:00.000                : en:
01:35:00.000                : en:
01:40:00.000                : en:
01:45:00.000                : en:
01:50:00.000                : en:
01:55:00.000                : en:
02:00:00.000                : en:
02:05:00.000                : en:
02:10:00.000                : en:
02:15:00.000                : en:

Код:
[info]: frame I:1550 Avg QP:15.25 size:164333
[info]: frame P:51285 Avg QP:17.84 size: 78761
[info]: frame B:145717 Avg QP:19.44 size: 37511


Джерела та подяки: ріп відео, оригінальні звук та субтитри - K.A.F. (рутор); українські доріжки - karvai0 - зведення та запис з ТБ (доріжка №1), Tanat13 - запис з ТБ (доріжка №2), Arsenfpu - зведення, Sando7, slavik_v_z - запис з ТБ (доріжка №3); український постер - bober-mober (всі - Гуртом).

Особиста оцінка: 8 - мені сподобалося

ЗАЛИШАЙТЕСЬ ЯКОМОГА ДОВШЕ НА РОЗДАЧІ!
СКАЧАВ САМ - ДАЙ СКАЧАТИ ІНШИМ


Срібний реліз (на рейтинг впливає 50% завантаженого)
 Трекер:    Зареєстрований   

Завантажити / скачати фільм українською



відео для новачків



 Зареєстрований:   2016-08-29 22:41
 Розмір:   10.26 GB 
 Оцінка фільму:   5.9/10 (Голосів: 23)
   
waldi-hurtom 
VIP


З нами з: 07.10.12
Востаннє: 09.12.16
Повідомлень: 613

2013-08-21 16:55  
Чудовий фільм, приємно було переглянути ще раз. Щось забувається, ми зміннюємось, фільм сприйнявся зовсім по новому. 9/10. Чесно кажучи, не зрозумів, що це за мара: "R - особам до 17 років обов'язкова присутність батьків або дорослого опікуна". Де там такі страшні сцени???? Дякую за реліз!
Anonymous 







2013-08-21 23:17  
waldi-hurtom написано:
Чесно кажучи, не зрозумів, що це за мара: "R - особам до 17 років

Сам дивуюсь, але на IMDB пишуть, що цей рейтинг вилючно через лайку у оригіналі - всього-навсього 12 факів та ще декілька слівець. В інших країнах в середньому ставлять вікову категорію 12 років.

hetzendorf 
Свій


З нами з: 23.07.15
Востаннє: 10.12.16
Повідомлень: 149

2016-08-29 21:18  
О, пам’ятаю, дивився цей фільм по зомбоскрині ще у лихі 90-і, Джек Ніколсон був тоді вже відомий, на відміну від ефектної де Мімур, яку важко не помітити, та самозакоханого красунчика-саєнтолуха Круза. Качну аби переглянути ще раз.
hetzendorf 
Свій


З нами з: 23.07.15
Востаннє: 10.12.16
Повідомлень: 149

2016-08-29 22:12  
igor911
Уже завантажив ^_^ Нічого, все одно з кількох озвучок я обираю якусь наугад, тож цей подивлюсь мабуть зі звуком від Інтера. Дякую! ^_^

Anonymous 







2016-08-29 22:43  
Озвучка від AMC має аналогічний ТТП переклад, лише озвучують інші актори.

Додано через 16 хвилин 16 секунд:

Реліз оновлено!
Додано українське озвучення від AMC

P.S. "золото" на тиждень для заохочення підтримки релізу.

hetzendorf 
Свій


З нами з: 23.07.15
Востаннє: 10.12.16
Повідомлень: 149

2016-08-30 13:11  
igor911 написано:
ТТП

Блін… @_@ Заґуґлив, що це таке…
Транстихоокеанське партнерство
Таємниці Темних Підземель
Тромботична тромбоцитопенічна пурпура
телевізійний трансляційний пункт
типизування технологічних процесів
тяжкі тілесні пошкодження
теорема про три перепендикуляри

Аж раптом здогадався, що мається та увазі Так Треба Продакціон

Ваш часовий пояс: GMT + 2 Години

Нова тема   Відповісти