Завантажити та скачати торренти українською


Поцілунок дракона / Kiss of the Dragon (2001) 1080p Ukr/Eng | Sub Eng

Нові коментарі

Нова тема   Відповісти
Автор Повідомлення
Anonymous 







2013-08-15 19:33  
Поцілунок дракона / Kiss of the Dragon (2001) 1080p Ukr/Eng | Sub Eng



Альтернативний постер


Жанр: бойовик, трилер, кримінальний
Країна: Франція, США



Кінокомпанія: Twentieth Century Fox Film Corporation, EuropaCorp, Quality Growth International Ltd.
Режисер: Кріс Наон / Chris Nahon
Актори: Джет Лі / Jet Li, Бріджет Фонда / Bridget Fonda, Чекі Каріо / Tchéky Karyo, Барт Куок / Burt Kwouk, Лоренс Ешлі / Laurence Ashley, Рік Янг / Ric Young, Сіріл Раффаеллі / Cyril Raffaelli та інші

Сюжет:
Офіцер китайської розвідки Лю Дзян (Джет Лі) приїжджає з Гонконгу до Парижа для участі у небезпечній операції по затриманню ватажка китайської мафії. Але весь план іде шкереберть. Він стає жертвою підстави з боку оборотнів у погонах - поліція звинувачує його у вбивстві і має переконливі докази.
Втікши з місця злочину з касетою з камери відеоспостереження, здатною довести його невинність, Лю ховається в магазині свого дядька, і натрапляє на місцеву повію, яка була присутня на місці вбивства і може дати свідчення на його користь ...


рейтинг MPAA: R - особам до 17 років обов'язкова присутність батьків або дорослого опікуна
Вікова категорія: 16+

Тривалість: 01:38:15
Якість: 1080p
Відео:
кодек:
розмір кадру: 1920x812
бітрейт: 9539 кб/с

Аудіо # 1:
мова: українська - Студія "ТВ+" на замовлення
переклад: багатоголосий закадровий
Ролі озвучили: Михайло Жонін (Джет Лі / Лю Дзян), Євген Пашин (Чекі Каріо / інспектор Річард) і Людмила Ардельян
кодек: 5.1
бітрейт: 448 кб/с

Аудіо # 2:
мова: англійська
переклад: оригінал
кодек: 5.1
бітрейт: 1510 кб/с

Субтитри:
мова: англійська
тип: програмні (м'які)
формат: *.srt
MediaInfo
General
Unique ID : 219750026272477614980308294904738463598 (0xA55250CA5CC3F559941F8427D68FBF6E)
Complete name : Kiss.of.the.Dragon.2001..1080p.Ukr.Eng.[sub.Eng].mkv
Format : Matroska
Format version : Version 4 / Version 2
File size : 7.89 GiB
Duration : 1h 38mn
Overall bit rate : 11.5 Mbps
Movie name : Поцілунок дракона / Kiss of the Dragon / Поцелуй дракона (2001)
Encoded date : UTC 2013-08-15 07:51:46
Writing application : mkvmerge v6.3.0 ('You can't stop me!') built on Jun 28 2013 20:09:41
Writing library : libebml v1.3.0 + libmatroska v1.4.0

Video
ID : 1
Format : AVC
Format/Info : Advanced Video Codec
Format profile : [email protected]
Format settings, CABAC : Yes
Format settings, ReFrames : 5 frames
Format settings, GOP : N=1
Codec ID : V_MPEG4/ISO/AVC
Duration : 1h 38mn
Bit rate : 9 539 Kbps
Width : 1 920 pixels
Height : 812 pixels
Display aspect ratio : 2.35:1
Frame rate mode : Constant
Frame rate : 23.976 fps
Color space : YUV
Chroma subsampling : 4:2:0
Bit depth : 8 bits
Scan type : Progressive
Bits/(Pixel*Frame) : 0.255
Stream size : 6.39 GiB (81%)
Title : Поцілунок дракона / Kiss of the Dragon / Поцелуй дракона (2001) [Olympus HDFilms]
Writing library : core 76 r1268 d542926
Encoding settings : cabac=1 / ref=5 / deblock=1:-3:-3 / analyse=0x3:0x113 / me=umh / subme=10 / psy=1 / psy_rd=1.0:0.0 / mixed_ref=1 / me_range=32 / chroma_me=1 / trellis=2 / 8x8dct=1 / cqm=0 / deadzone=21,11 / chroma_qp_offset=-2 / threads=12 / nr=0 / decimate=1 / mbaff=0 / bframes=3 / b_pyramid=0 / b_adapt=2 / b_bias=0 / direct=3 / wpredb=1 / keyint=250 / keyint_min=25 / scenecut=40 / rc_lookahead=0 / rc=2pass / mbtree=0 / bitrate=9539 / ratetol=1.0 / qcomp=0.60 / qpmin=10 / qpmax=51 / qpstep=4 / cplxblur=20.0 / qblur=0.5 / vbv_maxrate=50000 / vbv_bufsize=50000 / ip_ratio=1.40 / pb_ratio=1.30 / aq=1:0.80
Language : English
Default : Yes
Forced : No

Audio #1
ID : 2
Format : AC-3
Format/Info : Audio Coding 3
Mode extension : CM (complete main)
Format settings, Endianness : Big
Codec ID : A_AC3
Duration : 1h 38mn
Bit rate mode : Constant
Bit rate : 448 Kbps
Channel(s) : 6 channels
Channel positions : Front: L C R, Side: L R, LFE
Sampling rate : 48.0 KHz
Bit depth : 16 bits
Compression mode : Lossy
Delay relative to video : 27s 633ms
Stream size : 315 MiB (4%)
Title : MVO [ICTV-TV+] 5.1 448 Kbps [Hurtom-JACKUS]
Language : Ukrainian
Default : Yes
Forced : No

Audio #2
ID : 3
Format :
Format/Info : Digital Theater Systems
Mode : 16
Format settings, Endianness : Big
Codec ID : A_DTS
Duration : 1h 38mn
Bit rate mode : Constant
Bit rate : 1 509 Kbps
Channel(s) : 6 channels
Channel positions : Front: L C R, Side: L R, LFE
Sampling rate : 48.0 KHz
Bit depth : 24 bits
Compression mode : Lossy
Stream size : 1.04 GiB (13%)
Title : Original 5.1 1510 Kbps
Language : English
Default : No
Forced : No

Text
ID : 4
Format : UTF-8
Codec ID : S_TEXT/UTF8
Codec ID/Info : UTF-8 Plain Text
Title : Eng full [SDH]
Language : English
Default : No
Forced : No


Джерела та подяки: ріп відео, оригінальний звук - Olympus HDFilms; українська доріжка - JACKUS - зведення, Romario_O - запис з ТБ; український постер - dr_stas (всі - Гуртом).

Особиста оцінка: 8 - мені сподобалося

ЗАЛИШАЙТЕСЬ ЯКОМОГА ДОВШЕ НА РОЗДАЧІ!

СКАЧАВ САМ - ДАЙ СКАЧАТИ ІНШИМ


Срібний реліз (на рейтинг впливає 50% завантаженого)
 Трекер:    Зареєстрований   

Завантажити / скачати фільм українською



відео для новачків



 Зареєстрований:   2013-08-15 19:33
 Розмір:   7.89 GB 
 Оцінка фільму:   4.4/10 (Голосів: 16)
   
Інші релізи
Ваш часовий пояс: GMT + 2 Години

Нова тема   Відповісти