Завантажити та скачати торренти українською


Викуп / Ransom (1996) 1080p Ukr/Eng | Sub Eng

Нові коментарі

Нова тема   Відповісти
Автор Повідомлення
Anonymous 







2013-08-14 19:35  
Викуп / Ransom (1996) 1080p Ukr/Eng | Sub Eng



Жанр: трилер, кримінальний
Країна: США



Кінокомпанія: Touchstone Pictures, Imagine Entertainment
Режисер: Рон Ховард / Ron Howard
Актори: Мел Ґібсон / Mel Gibson, Рене Руссо / Rene Russo, Броулі Нолте / Brawley Nolte, Гарі Сініз / Gary Sinise, Делрой Ліндо / Delroy Lindo, Лілі Тейлор / Lili Taylor, Лів Шрайбер / Liev Schreiber та інші

Сюжет:
У процвітаючого власника авіакомпанії Тома Мулена зненацька викрадають сина та вимагають викуп у 2 мільйони доларів. Том повідомляє про викрадення у ФБР. З часом з'ясовується, що у минулому Тома Мулена була чорна пляма - він дав хабар і уникнув в'язниці, куди потрапила інша людина. Хто ж викрав його сина, і чи заплатить Том викуп?


рейтинг MPAA: R - особам до 17 років обов'язкова присутність батьків або дорослого опікуна
Вікова категорія: 16+

Тривалість: 02:01:27
Якість: 1080p
Відео:
кодек:
розмір кадру: 1920х1036
бітрейт: 8923 кб/с

Аудіо # 1:
мова: українська
переклад: багатоголосий закадровий
Ролі озвучили: Олег Стальчук (Мел Ґібсон / Том Мулен), Юрій Ребрик, Наталя Поліщук? і один жіночий голос
кодек: 2.0
бітрейт: 192 кб/с

Аудіо # 2:
мова: англійська
переклад: оригінал
кодек: 5.1
бітрейт: 448 кб/с

Субтитри:
мова: англійська
тип: програмні (м'які)
формат: *.srt

Збережено оригінальні розділи, як на Blu-ray.
MediaInfo та
[info]: frame I:1238 Avg QP:16.73 size:171186
[info]: frame P:41186 Avg QP:19.16 size: 77858
[info]: frame B:132312 Avg QP:20.60 size: 35561
=====================================================================================
General
Unique ID : 175671155882091370064361918085254605259 (0x842908B0CE4EC00DB5D8B1C4A4A3E9CB)
Complete name : Ransom.1996..1080p.Ukr.Eng.[sub.Eng].mkv
Format : Matroska
Format version : Version 4 / Version 2
File size : 8.11 GiB
Duration : 2h 1mn
Overall bit rate : 9 560 Kbps
Movie name : Викуп / Ransom / Выкуп (1996)
Encoded date : UTC 2013-08-14 15:50:06
Writing application : mkvmerge v6.3.0 ('You can't stop me!') built on Jun 28 2013 20:09:41
Writing library : libebml v1.3.0 + libmatroska v1.4.0

Video
ID : 1
Format : AVC
Format/Info : Advanced Video Codec
Format profile : [email protected]
Format settings, CABAC : Yes
Format settings, ReFrames : 4 frames
Codec ID : V_MPEG4/ISO/AVC
Duration : 2h 1mn
Bit rate : 8 923 Kbps
Width : 1 920 pixels
Height : 1 036 pixels
Display aspect ratio : 1.85:1
Frame rate mode : Constant
Frame rate : 23.976 fps
Color space : YUV
Chroma subsampling : 4:2:0
Bit depth : 8 bits
Scan type : Progressive
Bits/(Pixel*Frame) : 0.187
Stream size : 7.41 GiB (91%)
Title : Викуп / Ransom / Выкуп (1996) [NoLimits-Team]
Writing library : core 135 r2345 f0c1c53
Encoding settings : cabac=1 / ref=4 / deblock=1:0:0 / analyse=0x3:0x113 / me=umh / subme=11 / psy=1 / psy_rd=1.00:0.15 / mixed_ref=1 / me_range=32 / chroma_me=1 / trellis=2 / 8x8dct=1 / cqm=0 / deadzone=21,11 / fast_pskip=0 / chroma_qp_offset=-3 / threads=6 / lookahead_threads=1 / sliced_threads=0 / nr=0 / decimate=0 / interlaced=0 / bluray_compat=0 / constrained_intra=0 / bframes=8 / b_pyramid=2 / b_adapt=2 / b_bias=0 / direct=3 / weightb=1 / open_gop=0 / weightp=2 / keyint=240 / keyint_min=23 / scenecut=40 / intra_refresh=0 / rc=2pass / mbtree=0 / bitrate=8923 / ratetol=1.0 / qcomp=0.60 / qpmin=0 / qpmax=69 / qpstep=4 / cplxblur=20.0 / qblur=0.5 / ip_ratio=1.40 / pb_ratio=1.30 / aq=1:0.95
Language : English
Default : Yes
Forced : No

Audio #1
ID : 2
Format : AC-3
Format/Info : Audio Coding 3
Mode extension : CM (complete main)
Format settings, Endianness : Big
Codec ID : A_AC3
Duration : 2h 1mn
Bit rate mode : Constant
Bit rate : 192 Kbps
Channel(s) : 2 channels
Channel positions : Front: L R
Sampling rate : 48.0 KHz
Bit depth : 16 bits
Compression mode : Lossy
Stream size : 167 MiB (2%)
Title : MVO [TakTrebaProduction-K1] 2.0 192 Kbps [Hurtom-MutuLI]
Language : Ukrainian
Default : Yes
Forced : No

Audio #2
ID : 3
Format : AC-3
Format/Info : Audio Coding 3
Mode extension : CM (complete main)
Format settings, Endianness : Big
Codec ID : A_AC3
Duration : 2h 1mn
Bit rate mode : Constant
Bit rate : 448 Kbps
Channel(s) : 6 channels
Channel positions : Front: L C R, Side: L R, LFE
Sampling rate : 48.0 KHz
Bit depth : 16 bits
Compression mode : Lossy
Stream size : 389 MiB (5%)
Title : Original
Language : English
Default : No
Forced : No

Text
ID : 4
Format : UTF-8
Codec ID : S_TEXT/UTF8
Codec ID/Info : UTF-8 Plain Text
Title : Eng full
Language : English
Default : No
Forced : No

Menu
00:00:00.000 : en:00:00:00.000
00:00:13.012 : en:00:00:13.012
00:08:04.817 : en:00:08:04.817
00:13:42.071 : en:00:13:42.071
00:19:28.625 : en:00:19:28.625
00:24:48.570 : en:00:24:48.570
00:26:41.141 : en:00:26:41.141
00:30:26.574 : en:00:30:26.574
00:32:29.238 : en:00:32:29.238
00:36:41.199 : en:00:36:41.199
00:41:48.589 : en:00:41:48.589
00:44:21.450 : en:00:44:21.450
00:48:30.574 : en:00:48:30.574
01:00:07.145 : en:01:00:07.145
01:08:36.695 : en:01:08:36.695
01:16:01.848 : en:01:16:01.848
01:19:57.626 : en:01:19:57.626
01:24:44.120 : en:01:24:44.120
01:30:06.109 : en:01:30:06.109
01:33:46.203 : en:01:33:46.203
01:38:50.507 : en:01:38:50.507
01:48:45.644 : en:01:48:45.644
01:55:55.531 : en:01:55:55.531


Джерела та подяки: ріп відео, оригінальні звук та субтитри - _denis_100 (NoLimits-Team & FireBit-Films); українська доріжка - MutuLI - зведення, SweetN - запис з ТБ; український постер - ika1963 (всі - Гуртом).

Особиста оцінка: 8 - мені сподобалося

ЗАЛИШАЙТЕСЬ ЯКОМОГА ДОВШЕ НА РОЗДАЧІ!

СКАЧАВ САМ - ДАЙ СКАЧАТИ ІНШИМ


Срібний реліз (на рейтинг впливає 50% завантаженого)
 Трекер:    Зареєстрований   

Завантажити / скачати фільм українською



відео для новачків



 Зареєстрований:   2013-08-14 19:35
 Розмір:   8.11 GB 
 Оцінка фільму:   5.5/10 (Голосів: 21)
   
Інші релізи
   Викуп / Ransom (1996) [640 x 360] apvAltisimo  1 / 0   776 MB   2015-07-29 11:49 
   Викуп / Ransom (1996) Ukr/Eng | Sub Eng MutuLI  5 / 0   2.18 GB   2012-10-10 12:58 
waldi-hurtom 
VIP


З нами з: 07.10.12
Востаннє: 02.12.16
Повідомлень: 611

2013-08-18 19:41  
Дуже дякую за реліз! Класика жанру - дуже приємно передивитись в якості та без реклами. 10 балів. Дивно, чому така низька міжнародна оцінка - помста жидів Гібсону, чи що? І по ТБ щось давно не показували. Невже і тут жидівська змова?
Ua.bos_01 
VIP


З нами з: 22.06.15
Востаннє: 02.12.16
Повідомлень: 1290

2015-08-19 09:25  
waldi-hurtom - ніяк не інакше! Всюди жиди! :-)

А фільм чудовий!

1985god 
Новенький


З нами з: 27.10.09
Востаннє: 03.10.16
Повідомлень: 21

2016-03-28 12:44  
згадався мені цей фільм ! хороший фільм варто переглянути разок
Ваш часовий пояс: GMT + 2 Години

Нова тема   Відповісти