Завантажити та скачати торренти українською


Стій! Бо мама буде стріляти / Stop! Or My Mom Will Shoot (1992) 720p Ukr/Eng | sub Eng

Нові коментарі

Нова тема   Відповісти
Останній раз роздавалося zmiypvv (2016-12-06)
Автор Повідомлення
kicyunya 
Відео Гуртом - фільмокрай
Відео Гуртом - фільмокрай


З нами з: 06.01.12
Востаннє: 07.12.16
Повідомлень: 179

2013-08-11 01:29  
Стій! Бо мама буде стріляти / Stop! Or My Mom Will Shoot (1992) 720p Ukr/Eng | sub Eng

Стій! Бо мама буде стріляти / Stop! Or My Mom Will Shoot (1992) 720p Ukr/Eng | sub Eng


Жанр: комедія, бойовик
Країна: США



Кінокомпанія: Northern Lights Entertainment, Universal Pictures
Режисер: Роджер Споттісіуд
Актори: Сільвестер Сталлоне, Естель Гетті, ДжоБет Уільямс, Роджер Ріс, Мартін Ферреро, Гейлард Сартейн, Джон Уеслі

Сюжет:
У сержанта поліції Лос-Анджелеса Джо Борновські життя перекинулося вверх дном після того, як його мила матуся Тутті вирішила відвідати улюбленого синочка. До величезної радості подружки і безпосереднього начальника Джо, лейтенанта Гвен Харпер, Тутті відразу упорядковує його холостяцький барліг і починає налагоджувати "господарство". Як ви чудово розумієте, бравий сержант не в захваті від всіх цих нововведень. А тут ще, на додаток до всіх проблем, невгомонна Тутті виявляється свідком вбивства і вимагає... щоб син дозволив їй брати участь в розслідуванні! У результаті Джо одержує нового напарника - власну мамочку, яка вирішує задати злочинцям солідну прочуханку!


Тривалість: 01:23:08
Якість:
Відео:
кодек:
розмір кадру: 1280 x 692
бітрейт: 5430 кб/с

Аудіо # 1:
мова: українська
переклад: багатоголосий закадровий
кодек: 2.0
бітрейт: 224 кб/с

Примітка: телеканал Україна не показав 27,553 сек, а саме з 00:16:07,616 до 00:16:35,169. Ці секунди замінив озвученням Нового каналу з цієї роздачі.

Аудіо # 2:
мова: англійська
переклад: оригінал
кодек: 5.1
бітрейт: 448 кб/с

Джерело озвучення:


Субтитри:
мова: англійська
тип: програмні (м'які)
формат: *.srt
MediaInfo
Общее
Уникальный идентификатор : 224807033254124024051496888325905176728 (0xA920427C0BDF2C31BF6052E46289D898)
Полное имя : F:\Stop! O My Mom Will Shoot 1992 [Ukr,Eng; sub Eng] 720p HDTV.mkv
Формат : Matroska
Размер файла : 3,62 Гбайт
Продолжительность : 1 ч. 23 м.
Общий поток : 6226 Кбит/сек
Дата кодирования : UTC 2013-08-10 23:05:08
Программа кодирования : mkvmerge v4.0.0 ('The Stars were mine') сборка от Jun 6 2010 16:18:42
Библиотека кодирования : libebml v1.0.0 + libmatroska v1.0.0

Видео
Идентификатор : 1
Формат : AVC
Формат/Информация : Advanced Video Codec
Профиль формата : [email protected]
Параметр CABAC формата : Да
Параметр ReFrames формата : 9 кадров
Идентификатор кодека : V_MPEG4/ISO/AVC
Продолжительность : 1 ч. 23 м.
Битрейт : 5430 Кбит/сек
Ширина : 1280 пикс.
Высота : 692 пикс.
Соотношение сторон : 1,850
Частота кадров : 25,000 кадр/сек
Частота кадров в оригинале : 23,976 кадр/сек
Цветовое пространство : YUV
Подвыборка цветности : 4:2:0
Битовая глубина : 8 бит
Тип развёртки : Прогрессивная
Бит/(Пиксели*Кадры) : 0.245
Размер потока : 3,15 Гбайт (87%)
Заголовок : Stop! Or My Mom Will Shoot (1992)
Библиотека кодирования : core 124 r2197 69a0443
Настройки программы : cabac=1 / ref=9 / deblock=1:-1:-1 / analyse=0x3:0x133 / me=umh / subme=10 / psy=1 / psy_rd=1.00:0.15 / mixed_ref=1 / me_range=24 / chroma_me=1 / trellis=2 / 8x8dct=1 / cqm=0 / deadzone=21,11 / fast_pskip=1 / chroma_qp_offset=-3 / threads=9 / sliced_threads=0 / nr=0 / decimate=1 / interlaced=0 / bluray_compat=0 / constrained_intra=0 / bframes=8 / b_pyramid=2 / b_adapt=2 / b_bias=0 / direct=3 / weightb=1 / open_gop=0 / weightp=2 / keyint=250 / keyint_min=23 / scenecut=40 / intra_refresh=0 / rc_lookahead=60 / rc=crf / mbtree=1 / crf=17.0 / qcomp=0.60 / qpmin=0 / qpmax=69 / qpstep=4 / ip_ratio=1.40 / aq=1:1.00
Коэффициенты матрицы : BT.709-5, BT.1361, IEC 61966-2-4 709, SMPTE RP177

Аудио #1
Идентификатор : 2
Формат : AC-3
Формат/Информация : Audio Coding 3
Расширение режима : CM (complete main)
Идентификатор кодека : A_AC3
Продолжительность : 1 ч. 23 м.
Вид битрейта : Постоянный
Битрейт : 224 Кбит/сек
Каналы : 2 канала
Расположение каналов : Front: L R
Частота : 48,0 КГц
Битовая глубина : 16 бит
Метод сжатия : С потерями
Размер потока : 133 Мбайт (4%)
Заголовок : Багатоголосий закадровий
Язык : Ukrainian

Аудио #2
Идентификатор : 3
Формат : AC-3
Формат/Информация : Audio Coding 3
Расширение режима : CM (complete main)
Идентификатор кодека : A_AC3
Продолжительность : 1 ч. 23 м.
Вид битрейта : Постоянный
Битрейт : 448 Кбит/сек
Каналы : 6 каналов
Расположение каналов : Front: L C R, Side: L R, LFE
Частота : 48,0 КГц
Битовая глубина : 16 бит
Метод сжатия : С потерями
Размер потока : 266 Мбайт (7%)
Заголовок : Оригінал
Язык : English

Текст
Идентификатор : 4
Формат : UTF-8
Идентификатор кодека : S_TEXT/UTF8
Идентификатор кодека/Информация : UTF-8 Plain Text
Язык : English
Скріншоти


Джерело:
Особиста оцінка: 8 - мені сподобалося

PG-13 - рейтинг стрічки, встановлений Американською асоціацією кінокомпаній

MPAA, англ. Motion Picture Association of America - Американська асоціація кінокомпаній

Рейтинг PG-13 — Parents strongly cautioned
Діти до 13 років допускаються на фільм тільки з батьками.

Настійне застереження батькам. Деякий матеріал може бути недоречним для перегляду дітей до 13 років. Даний рейтинг показує, що оцінений фільм може непідходити для дітей. Батьки повинні бути особливо обережні, дозволяючи своїм маленьким дітям перегляд. Грубе або тривале насильство відсутнє; сексуальна орієнтація на наготу відсутня; деякі сцени вживання наркотиків можуть бути присутніми; можна почути одиничні вживання грубої сексуальної лексики.


 Трекер:    Зареєстрований   

Завантажити / скачати фільм українською



відео для новачків



 Зареєстрований:   2013-08-11 01:29
 Розмір:   3.62 GB 
 Оцінка фільму:   10/10 (Голосів: 9)
   
Ваш часовий пояс: GMT + 2 Години

Нова тема   Відповісти