Завантажити та скачати торренти українською


Втеча / The Getaway [Unrated] (1994) 1080p Ukr/Eng | sub Ukr/Eng

Нові коментарі

Нова тема   Відповісти
Автор Повідомлення
Anonymous 







2013-08-10 20:45  
Втеча / The Getaway [Unrated] (1994) 1080p Ukr/Eng | sub Ukr/Eng



Альтернативні постери





Жанр: бойовик, трилер, драма, мелодрама, кримінальний, пригодницький
Країна: США, Японія



Кінокомпанія: Universal Pictures, Largo Entertainment, JVC Entertainment Networks
Режисер: Роджер Дональдсон / Roger Donaldson
Актори: Алек Болдуін / Alec Baldwin, Кім Бейсінґер / Kim Basinger, Майкл Медсен / Michael Madsen, Джеймс Вудс / James Woods, Девід Морс / David Morse, Дженніфер Тіллі / Jennifer Tilly, Джеймс Стівенс / James Stephens та інші.

Сюжет:
Професійний зломщик сейфів Док МакКой допоміг молодому злочинцеві-мексиканцю втекти з-за грат, доставив хлопця його дядьку, але не відчув, звідки загрожує справжня небезпека, і в результаті сам потрапив у в'язницю. Через деякий час Керол МакКой, дружина Дока, переспала з продажним інспектором Джеком Беньоном, і той посприяв достроковому звільненню «ведмежатника».

Проте у Джека були надзвичайно далекосяжні плани на найближче майбутнє Дока і Керол: під тиском шантажиста Беньона подружжя повинне було здійснити пограбування банку...


рейтинг MPAA: R - особам до 17 років обов'язкова присутність батьків або дорослого опікуна
Вікова категорія: 18+

Відмінності Unrated (18+) версії від R-Rated (16+) - додано еротичну сцену 47 секунд (детальніше)

Тривалість: 01:55:49
Якість: 1080p
Відео:
кодек:
розмір кадру: 1920х816
бітрейт: 12552 кб/с

Аудіо # 1:
мова: українська - Так Треба Продакшн на замовлення
переклад: багатоголосий закадровий
Ролі озвучили: Олег Стальчук (Алек Болдуін / Картер 'Док' МакКой), Володимир Терещук (Джеймс Вудс / Джек Беньон), Дмитро Терещук і один жіночий голос
кодек: 5.1
бітрейт: 640 кб/с

Аудіо # 2:
мова: англійська
переклад: оригінал
кодек: 5.1
бітрейт: 640 кб/с

Субтитри #1:
мова: українська
тип: програмні (м'які)
формат: *.srt

Субтитри #2:
мова: англійська
тип: програмні (м'які)
формат: *.srt

Збережено оригінальні розділи, як на HD DVD
MediaInfo та
[info]: frame I:989 Avg QP:19.53 size:176872
[info]: frame P:37810 Avg QP:21.75 size: 94934
[info]: frame B:127809 Avg QP:23.55 size: 55812
==================================================================================
General
Unique ID : 242245376558957160120453037090329748266 (0xB63EC3309B4108FEBC7D498B7F0E632A)
Complete name : The.Getaway.[UNRATED].1994..1080p.Ukr.Eng.[sub.Ukr.Eng].mkv
Format : Matroska
Format version : Version 4 / Version 2
File size : 11.2 GiB
Duration : 1h 55mn
Overall bit rate : 13.8 Mbps
Movie name : Втеча / The Getaway / Побег [UNRATED] (1994) 1080p
Encoded date : UTC 2013-08-10 06:25:08
Writing application : mkvmerge v6.3.0 ('You can't stop me!') built on Jun 28 2013 20:09:41
Writing library : libebml v1.3.0 + libmatroska v1.4.0

Video
ID : 1
Format : AVC
Format/Info : Advanced Video Codec
Format profile : [email protected]
Format settings, CABAC : Yes
Format settings, ReFrames : 5 frames
Codec ID : V_MPEG4/ISO/AVC
Duration : 1h 55mn
Bit rate : 12.6 Mbps
Width : 1 920 pixels
Height : 816 pixels
Display aspect ratio : 2.35:1
Frame rate mode : Constant
Frame rate : 23.976 fps
Color space : YUV
Chroma subsampling : 4:2:0
Bit depth : 8 bits
Scan type : Progressive
Bits/(Pixel*Frame) : 0.334
Stream size : 9.93 GiB (89%)
Title : Втеча / The Getaway / Побег [UNRATED] (1994) 1080p [K.A.F.]
Writing library : core 135 r2345 f0c1c53
Encoding settings : cabac=1 / ref=5 / deblock=1:0:0 / analyse=0x3:0x133 / me=tesa / subme=11 / psy=1 / psy_rd=1.00:0.10 / mixed_ref=1 / me_range=32 / chroma_me=1 / trellis=2 / 8x8dct=1 / cqm=0 / deadzone=21,11 / fast_pskip=0 / chroma_qp_offset=-3 / threads=12 / lookahead_threads=1 / sliced_threads=0 / nr=0 / decimate=0 / interlaced=0 / bluray_compat=0 / constrained_intra=0 / bframes=6 / b_pyramid=2 / b_adapt=2 / b_bias=0 / direct=3 / weightb=1 / open_gop=0 / weightp=2 / keyint=240 / keyint_min=23 / scenecut=40 / intra_refresh=0 / rc=2pass / mbtree=0 / bitrate=12552 / ratetol=1.0 / qcomp=0.60 / qpmin=0 / qpmax=69 / qpstep=4 / cplxblur=20.0 / qblur=0.5 / ip_ratio=1.40 / pb_ratio=1.30 / aq=1:1.00
Language : English
Default : Yes
Forced : No

Audio #1
ID : 2
Format : AC-3
Format/Info : Audio Coding 3
Mode extension : CM (complete main)
Format settings, Endianness : Big
Codec ID : A_AC3
Duration : 1h 55mn
Bit rate mode : Constant
Bit rate : 640 Kbps
Channel(s) : 6 channels
Channel positions : Front: L C R, Side: L R, LFE
Sampling rate : 48.0 KHz
Bit depth : 16 bits
Compression mode : Lossy
Stream size : 530 MiB (5%)
Title : MVO [TakTrebaProduction-TRK Ukraina] 5.1 640 Kbps [Hurtom-urij546724]
Language : Ukrainian
Default : Yes
Forced : No

Audio #2
ID : 3
Format : AC-3
Format/Info : Audio Coding 3
Mode extension : CM (complete main)
Format settings, Endianness : Big
Codec ID : A_AC3
Duration : 1h 55mn
Bit rate mode : Constant
Bit rate : 640 Kbps
Channel(s) : 6 channels
Channel positions : Front: L C R, Side: L R, LFE
Sampling rate : 48.0 KHz
Bit depth : 16 bits
Compression mode : Lossy
Stream size : 530 MiB (5%)
Title : Original 5.1 640 Kbps
Language : English
Default : No
Forced : No

Text #1
ID : 4
Format : UTF-8
Codec ID : S_TEXT/UTF8
Codec ID/Info : UTF-8 Plain Text
Title : Ukr full [Hurtom-urij546724]
Language : Ukrainian
Default : No
Forced : No

Text #2
ID : 5
Format : UTF-8
Codec ID : S_TEXT/UTF8
Codec ID/Info : UTF-8 Plain Text
Title : Eng full urij546724
Language : English
Default : No
Forced : No

Menu
00:00:00.000 : en:
00:05:00.000 : en:
00:10:00.000 : en:
00:15:00.000 : en:
00:20:00.000 : en:
00:25:00.000 : en:
00:30:00.000 : en:
00:35:00.000 : en:
00:40:00.000 : en:
00:45:00.000 : en:
00:50:00.000 : en:
00:55:00.000 : en:
01:00:00.000 : en:
01:05:00.000 : en:
01:10:00.000 : en:
01:15:00.000 : en:
01:20:00.000 : en:
01:25:00.000 : en:
01:30:00.000 : en:
01:35:00.000 : en:
01:40:00.000 : en:
01:45:00.000 : en:
01:50:00.000 : en:
01:55:00.000 : en:


Офіційний трейлер


Джерела та подяки: ріп відео, оригінальні звук та субтитри - K.A.F. (рутор); українська доріжка - urij546724 - зведення, Merdiff - запис з ТБ; українські субтитри - urij546724 - (переклад з російської) (всі - Гуртом).

Особиста оцінка: 7 - мені сподобалося

ЗАЛИШАЙТЕСЬ ЯКОМОГА ДОВШЕ НА РОЗДАЧІ!

СКАЧАВ САМ - ДАЙ СКАЧАТИ ІНШИМ


Срібний реліз (на рейтинг впливає 50% завантаженого)
 Трекер:    Зареєстрований   

Завантажити / скачати фільм українською



відео для новачків



 Зареєстрований:   2013-08-10 20:45
 Розмір:   11.19 GB 
 Оцінка фільму:   4.8/10 (Голосів: 18)
   
Інші релізи
   Втеча / The Getaway (1994) 720p Ukr/Eng | sub Ukr urij546724  3 / 0   4.89 GB   2011-10-08 11:28 
   Втеча / The Getaway (1994) Ukr/Eng | sub Ukr/Eng urij546724  3 / 0   2.72 GB   2011-10-08 11:25 
Ваш часовий пояс: GMT + 2 Години

Нова тема   Відповісти