Завантажити та скачати торренти українською


Що знає Мейзі / What Maisie Knew (2012) 720p Eng | sub Ukr/Eng

Нові коментарі

Нова тема   Відповісти
Останній раз роздавалося hardsem (2016-12-05)
Автор Повідомлення
DеLight 
Відео Гуртом - фільмокрай
Відео Гуртом - фільмокрай


З нами з: 24.08.11
Востаннє: 17.11.16
Повідомлень: 664

2013-08-08 13:14  
Що знає Мейзі / What Maisie Knew (2012) 720p Eng | sub Ukr/Eng

Що знає Мейзі / What Maisie Knew (2012) 720p Eng | sub Ukr/Eng


+++




Жанр: драма
Країна: США





Кінокомпанія: 10th Hole Productions, 120dB Films, Coll-Abbitt Productions, Dreambridge Films, Image Entertainment Inc., Red Crown Productions, Weinstock Productions
Режисер: Скотт МакГі / Scott McGehee, Дейвід Зіґел / David Siegel
Актори: Джуліанн Мур / Julianne Moore, Александр Скарсґард / Alexander Skarsgård, Онейта Ейпріл / Onata Aprile, Джоанна Вандергам / Joanna Vanderham, Стів Куґан / Steve Coogan, Седі Рей / Sadie Rae, Діана Ґарсія / Diana Garcia, Амелія Кемпбелл / Amelia Campbell, Медді Кормен / Maddie Corman та інші

Сюжет:
Екранізація однойменного роману Генрі Джеймса, який вийшов у 1897 році. Прем'єра фільму відбулася на Міжнародному кінофестивалі в Торонто 7 вересня 2012 року.

Одне з найзнаменитіших і величних міст на планеті, яке просто заворожує своєю красою і енергією - це Нью-Йорк. У центрі історії знаходиться шестирічна дівчинка, яку звуть Мейзі. Hесподівано вона стає безпосереднім свідком дуже складного розлучення своїх улюблених батьків - популярної рок-зірки і успішного арт-дилера.


Тривалість: 01:38:56
Якість: 720p

Відео:
кодек:
розмір кадру: 1280 x 534
бітрейт: 2 739 кб/с

Аудіо:
мова: англійська
переклад: оригінал
кодек: 5.1
бітрейт: 448 кб/с

Субтитри #1:
мова: українська
тип: програмні (м'які)
формат: *.srt

Переклад з англійської - Delight

Субтитри #2-3:
мова: англійська
тип: програмні (м'які)
формат: *.srt


HD Trailer


MediaInfo
Код:

General
Unique ID                      : 181305719670055245179720840702976152373 (0x88663622402BD0FDBA7EC76179955335)
Complete name                  : D:\Torrents\What Maisie Knew (2012) 720p [Eng, sub Ukr, Eng] [Hurtom].mkv
Format                         : Matroska
Format version                 : Version 4 / Version 2
File size                      : 2.20 GiB
Duration                       : 1h 38mn
Overall bit rate               : 3 187 Kbps
Movie name                     : What Maisie Knew (2012) 720p [Hurtom] by Delight
Encoded date                   : UTC 2013-08-08 20:39:28
Writing application            : mkvmerge v6.3.0 ('You can't stop me!') built on Jun 27 2013 22:06:07
Writing library                : libebml v1.3.0 + libmatroska v1.4.0

Video
ID                             : 1
Format                         : AVC
Format/Info                    : Advanced Video Codec
Format profile                 : [email protected]
Format settings, CABAC         : Yes
Format settings, ReFrames      : 9 frames
Codec ID                       : V_MPEG4/ISO/AVC
Duration                       : 1h 38mn
Bit rate                       : 2 739 Kbps
Width                          : 1 280 pixels
Height                         : 534 pixels
Display aspect ratio           : 2.40:1
Frame rate mode                : Constant
Frame rate                     : 23.976 fps
Color space                    : YUV
Chroma subsampling             : 4:2:0
Bit depth                      : 8 bits
Scan type                      : Progressive
Bits/(Pixel*Frame)             : 0.167
Stream size                    : 1.85 GiB (84%)
Title                          : What Maisie Knew (2012) 720p
Writing library                : core 130 r2273 b3065e6
Encoding settings              : cabac=1 / ref=9 / deblock=1:-3:-3 / analyse=0x3:0x113 / me=umh / subme=10 / psy=1 / psy_rd=1.00:0.00 / mixed_ref=1 / me_range=16 / chroma_me=1 / trellis=2 / 8x8dct=1 / cqm=0 / deadzone=21,11 / fast_pskip=1 / chroma_qp_offset=-2 / threads=12 / lookahead_threads=1 / sliced_threads=0 / nr=0 / decimate=1 / interlaced=0 / bluray_compat=0 / constrained_intra=0 / bframes=3 / b_pyramid=2 / b_adapt=1 / b_bias=0 / direct=1 / weightb=1 / open_gop=0 / weightp=2 / keyint=250 / keyint_min=23 / scenecut=40 / intra_refresh=0 / rc=2pass / mbtree=0 / bitrate=2739 / ratetol=1.0 / qcomp=0.60 / qpmin=0 / qpmax=69 / qpstep=4 / cplxblur=20.0 / qblur=0.5 / ip_ratio=1.40 / pb_ratio=1.30 / aq=1:0.80
Language                       : English
Default                        : Yes
Forced                         : No

Audio
ID                             : 2
Format                         : AC-3
Format/Info                    : Audio Coding 3
Mode extension                 : CM (complete main)
Format settings, Endianness    : Big
Codec ID                       : A_AC3
Duration                       : 1h 38mn
Bit rate mode                  : Constant
Bit rate                       : 448 Kbps
Channel(s)                     : 6 channels
Channel positions              : Front: L C R, Side: L R, LFE
Sampling rate                  : 48.0 KHz
Bit depth                      : 16 bits
Compression mode               : Lossy
Stream size                    : 317 MiB (14%)
Title                          : 5.1; 448 kbps; original
Language                       : English
Default                        : Yes
Forced                         : No

Text #1
ID                             : 3
Format                         : UTF-8
Codec ID                       : S_TEXT/UTF8
Codec ID/Info                  : UTF-8 Plain Text
Title                          : full [translated by Delight]
Language                       : Ukrainian
Default                        : Yes
Forced                         : No

Text #2
ID                             : 4
Format                         : UTF-8
Codec ID                       : S_TEXT/UTF8
Codec ID/Info                  : UTF-8 Plain Text
Title                          : full
Language                       : English
Default                        : No
Forced                         : No

Text #3
ID                             : 5
Format                         : UTF-8
Codec ID                       : S_TEXT/UTF8
Codec ID/Info                  : UTF-8 Plain Text
Title                          : SDH
Language                       : English
Default                        : No
Forced                         : No

Menu
00:00:00.000                   : en:Chapter 1
00:08:47.944                   : en:Chapter 2
00:15:39.230                   : en:Chapter 3
00:23:45.215                   : en:Chapter 4
00:31:58.625                   : en:Chapter 5
00:39:14.227                   : en:Chapter 6
00:48:48.759                   : en:Chapter 7
00:56:55.037                   : en:Chapter 8
01:06:00.373                   : en:Chapter 9
01:17:18.092                   : en:Chapter 10
01:28:08.200                   : en:Chapter 11
01:35:03.573                   : en:Chapter 12

Скріншоти

























Джерело:


Золотий реліз (завантажене не впливає на рейтинг)
 Трекер:    Зареєстрований   

Завантажити / скачати фільм українською



відео для новачків



 Зареєстрований:   2013-08-09 09:11
 Розмір:   2.2 GB 
 Оцінка фільму:   9.5/10 (Голосів: 6)
   
bot 
робот


З нами з: 30.09.07
Востаннє: 26.05.05
Повідомлень: 15989

2013-08-09 09:10  
Тему перенесено з Анонси релізів від Відео Гуртом до форуму Фільми в HD


Delight`

waldi-hurtom 
VIP


З нами з: 07.10.12
Востаннє: 03.12.16
Повідомлень: 611

2013-08-14 13:44  
Весь час, поки дивився фільм, мене не покидало почуття неправдоподібності, нереальності. Розгадка виявилась банальною, екранізація роману від 1897 року. Зараз такі "батькі" просто не заводять дітей та навіть не одружуються. Даремно перенесли дію в сучасність - змінились закони, суспільна мораль, уподобання. Чомусь у Голівуді вважають, що відвідувачі кінотеатрів повні дебіли, а їхні уподобання та уява обмежені лише своїм часом. 7 балів виключно за гру дівчинки.
andriy_todd 
Новенький


З нами з: 18.11.12
Востаннє: 24.10.16
Повідомлень: 1

2014-11-25 22:17  
Люблю цей фільм. Батькам дівчинка непотрібна, використовують її в своїх цілях щоб розізлити одне одного і найцікавіше те що дівчинка це усвідомлювала але всеодно продовжувала любити тих кому не потрібна.. Гра дівчинки чудова!
senya8710 
Новенький


З нами з: 12.11.12
Востаннє: 28.11.16
Повідомлень: 3

2015-12-23 11:26  
хеееей, хто-небудь!
Дайте фільм подивиться. Встаньте хтось на роздачу, пліз.

tetna 
Свій


З нами з: 21.11.14
Востаннє: 04.12.16
Повідомлень: 148

2016-03-20 23:18  
Пречудовий
Ваш часовий пояс: GMT + 2 Години

Нова тема   Відповісти