Завантажити та скачати торренти українською


5R6 - Knots & Spirals [EP] (2010) [WV] | Progressive Rock/Progressive Metal

Нові коментарі

Нова тема   Відповісти
Останній раз роздавалося ssTAss (2016-11-27)
Автор Повідомлення
ssTAss 
Модератор музики


З нами з: 05.07.08
Востаннє: 08.12.16
Повідомлень: 10947

2013-08-07 19:47  
5R6 - Knots & Spirals [EP] (2010) [WV] | Progressive Rock/Progressive Metal

5R6 - Knots & Spirals [EP] (2010) [WV] | Progressive Rock/Progressive Metal


Стиль: Progressive Rock, Metal
Країна, місто: Україна, Харків
Видавець: гурт
Виконавці:
Ігор Зубко - гітара, вокал
Євген Зінченко - бас
Кирило Бренер - гітара
Дмитро Зінченко - барабани
Пісні:
    1. Hollow Me
    2. Inevitable Enemy
    3. Question
    4. Knots & Spirals
    5. Unfixable
    6. Maya
log
Exact Audio Copy V1.0 beta 3 from 29. August 2011

EAC extraction logfile from 2. June 2013, 21:28

5R6 / Knots & Spirals [2010 Самиздат UA]

Used drive : ASUS DRW-1814BLT Adapter: 4 ID: 0

Read mode : Secure
Utilize accurate stream : Yes
Defeat audio cache : Yes
Make use of C2 pointers : No

Read offset correction : 6
Overread into Lead-In and Lead-Out : No
Fill up missing offset samples with silence : Yes
Delete leading and trailing silent blocks : No
Null samples used in CRC calculations : Yes
Used interface : Native Win32 interface for Win NT & 2000

Used output format : User Defined Encoder
Selected bitrate : 896 kBit/s
Quality : High
Add ID3 tag : No
Command line compressor : F:\Dropbox\Programs\Sound\Wavpack\wavpack.exe
Additional command line options : -hlmx2 %source% %dest%

TOC of the extracted CD

Track | Start | Length | Start sector | End sector
---------------------------------------------------------
1 | 0:00.00 | 4:42.18 | 0 | 21167
2 | 4:42.18 | 3:57.42 | 21168 | 38984
3 | 8:39.60 | 4:39.35 | 38985 | 59944
4 | 13:19.20 | 4:13.61 | 59945 | 78980
5 | 17:33.06 | 4:50.04 | 78981 | 100734
6 | 22:23.10 | 4:58.36 | 100735 | 123120

Range status and errors

Selected range

Filename D:\Releases\5R6 - 2010 - Knots & Spirals\5R6 - Knots & Spirals [2010 Самиздат UA].wav

Peak level 96.8 %
Extraction speed 3.9 X
Range quality 99.9 %
Test CRC DC440FBC
Copy CRC DC440FBC
Copy OK

No errors occurred

AccurateRip summary

Track 1 cannot be verified as accurate (confidence 1) [C7A01E50], AccurateRip returned [6692F69A] (AR v2)
Track 2 cannot be verified as accurate (confidence 1) [876A3347], AccurateRip returned [BB791AEC] (AR v2)
Track 3 cannot be verified as accurate (confidence 1) [4DF84F99], AccurateRip returned [B3E0366F] (AR v2)
Track 4 accurately ripped (confidence 1) [8EE4F63F] (AR v2)
Track 5 accurately ripped (confidence 1) [CB12B83D] (AR v2)
Track 6 accurately ripped (confidence 1) [1609C862] (AR v2)

3 track(s) accurately ripped
3 track(s) could not be verified as accurate

Some tracks could not be verified as accurate

End of status report

==== Log checksum 6037ED995B7BAA9418A763484BA22E3802C7F6A5A6B22D7D554E5B01100F0D19 ====
fooCDtect
fooCDtect - foobar2000 + auCDtect, baralgin.

auCDtect: CD records authenticity detector, version 0.8.2
Copyright (c) 2004 Oleg Berngardt. All rights reserved.
Copyright (c) 2004 Alexander Djourik. All rights reserved.

mode: 0

===========================================
Track: 01 - Hollow Me
Quality: CDDA 100%
===========================================
Track: 02 - Inevitable Enemy
Quality: CDDA 100%
===========================================
Track: 03 - Question
Quality: CDDA 100%
===========================================
Track: 04 - Knots & Spirals
Quality: CDDA 100%
===========================================
Track: 05 - Unfixable
Quality: CDDA 100%
===========================================
Track: 06 - Maya
Quality: CDDA 100%
===========================================
Тривалість: 00:27:22
Мова: англійська
Аудіо-кодек: WavPack
Бітрейт: 1006 кб/с
Джерело: інтернет

Якщо Ви справді бажаєте підтримати українське - після прослуховування, якщо музика вам сподобалась,
придбайте ліцензійний диск.
Підтримаймо вітчизняних виконавців!


Срібний реліз (на рейтинг впливає 50% завантаженого)
 Трекер:    Зареєстрований   

Завантажити / скачати українську музику



відео для новачків



 Зареєстрований:   2013-08-07 19:47
 Розмір:   217 MB 
 Оцінка музики:   5.5/10 (Голосів: 6)
   
ssTAss 
Модератор музики


З нами з: 05.07.08
Востаннє: 08.12.16
Повідомлень: 10947

2013-08-07 19:48  
Oleksa9 
Поважний учасник


З нами з: 17.05.12
Востаннє: 07.12.16
Повідомлень: 225

2013-08-07 20:00  
Якщо Євген та Кирило, то тоді вже й Дмитро Happy
Ваш часовий пояс: GMT + 2 Години

Нова тема   Відповісти