Завантажити та скачати торренти українською


Ігор Закус & Z-Band - Zakus was here live (2007) [WV] | Jazz

Нові коментарі

Нова тема   Відповісти
Останній раз роздавалося ssTAss (2016-12-10)
Автор Повідомлення
ssTAss 
Модератор музики


З нами з: 05.07.08
Востаннє: 10.12.16
Повідомлень: 10954

2013-08-06 23:46  
Ігор Закус & Z-Band - Zakus was here live (2007) [WV] | Jazz

Ігор Закус & Z-Band - Zakus was here live (2007) [WV] | Jazz


Стиль: Jazz
Країна, місто: Україна, Київ
Сайти: Офіційний сайт
Видавець: Comp music
Виконавці:
Ігор Закус - бас-гітара
Дмитро "Бобін" Александров - тенор-саксофон
Родіон Іванов - клавішні
Володимир Шабалтас - гітара
Олександр Лебеденко - барабани
Олексій Коган - ведучий концерту
Пісні:
    1. Boytsoon (музика: Сергій Діденко)
    2. Як вдома (музика: Родіон Іванов)
    3. Колисанка (музика: Ігор Закус)
    4. Пісня для коханої (музика: Ігор Закус)
    5. Speace Dog (музика: Родіон Іванов)
    6. Jaco Blues (музика: Ігор Закус)
    7. Присвята (музика: Ігор Закус)
    8. Zakus Was Here (музика: Сергій Діденко, Ігор Закус)
log
Exact Audio Copy V1.0 beta 3 from 29. August 2011

EAC extraction logfile from 4. June 2013, 21:22

Ігор Закус & Z-Band / Zakus was here live 2007

Used drive : SAMSUNG CD-ROM SC-152C Adapter: 0 ID: 0

Read mode : Secure
Utilize accurate stream : Yes
Defeat audio cache : Yes
Make use of C2 pointers : No

Read offset correction : 600
Overread into Lead-In and Lead-Out : No
Fill up missing offset samples with silence : Yes
Delete leading and trailing silent blocks : No
Null samples used in CRC calculations : Yes
Used interface : Native Win32 interface for Win NT & 2000

Used output format : User Defined Encoder
Selected bitrate : 1024 kBit/s
Quality : High
Add ID3 tag : No
Command line compressor : C:\Blade\Programs\wavpack-4.60.1\wavpack.exe
Additional command line options : -hlmx2 %source% %dest%

TOC of the extracted CD

Track | Start | Length | Start sector | End sector
---------------------------------------------------------
1 | 0:00.00 | 8:28.09 | 0 | 38108
2 | 8:28.09 | 7:15.73 | 38109 | 70806
3 | 15:44.07 | 10:21.60 | 70807 | 117441
4 | 26:05.67 | 9:08.06 | 117442 | 158547
5 | 35:13.73 | 10:43.53 | 158548 | 206825
6 | 45:57.51 | 12:29.63 | 206826 | 263063
7 | 58:27.39 | 6:55.20 | 263064 | 294208
8 | 65:22.59 | 12:04.16 | 294209 | 348524

Range status and errors

Selected range

Filename C:\Blade\music\work\Igor Zakus & Z-Band - 2007 - Zakus was here live 2007.wav

Peak level 100.0 %
Extraction speed 1.5 X
Range quality 99.9 %
Test CRC E8D5B6A9
Copy CRC E8D5B6A9
Copy OK

No errors occurred

AccurateRip summary

Track 1 accurately ripped (confidence 1) [75AA9C09] (AR v1)
Track 2 accurately ripped (confidence 1) [98F80230] (AR v1)
Track 3 accurately ripped (confidence 1) [A50589CB] (AR v1)
Track 4 accurately ripped (confidence 1) [04C8C0C2] (AR v1)
Track 5 accurately ripped (confidence 1) [A06CFD36] (AR v1)
Track 6 accurately ripped (confidence 1) [BB7F14C4] (AR v1)
Track 7 accurately ripped (confidence 1) [FABFA60D] (AR v1)
Track 8 accurately ripped (confidence 1) [49EA96C7] (AR v1)

All tracks accurately ripped

End of status report

---- CUETools DB Plugin V2.1.3

[CTDB TOCID: GQ4.5kkFO3XKqVAss8zL61Dq95s-] disk not present in database, Submit result: database access error: The request was aborted: The request was canceled.

==== Log checksum A697CF4EC6C6A72FE5E6DF327EDDB05CCD8D7E8B8E7D0893EBD10E0515328DCD ====
fooCDtect
fooCDtect - foobar2000 + auCDtect, baralgin.

auCDtect: CD records authenticity detector, version 0.8.2
Copyright (c) 2004 Oleg Berngardt. All rights reserved.
Copyright (c) 2004 Alexander Djourik. All rights reserved.

mode: 0

===========================================
Track: 01 - Boytsoon
Quality: CDDA 100%
===========================================
Track: 02 - Як вдома
Quality: CDDA 100%
===========================================
Track: 03 - Колисанка
Quality: CDDA 100%
===========================================
Track: 04 - Пісня для коханої
Quality: CDDA 100%
===========================================
Track: 05 - Speace Dog
Quality: CDDA 100%
===========================================
Track: 06 - Jaco Blues
Quality: CDDA 100%
===========================================
Track: 07 - Присвята
Quality: CDDA 100%
===========================================
Track: 08 - Zakus Was Here
Quality: CDDA 100%
===========================================
Тривалість: 01:17:27
Мова: відсутня
Аудіо-кодек: WavPack
Бітрейт: 898 кб/с
Джерело: нетлаб
Додаткова інформація:
Джаз-Коло виявилось навіть більш масштабним починанням, ніж просто організація регулярних великих презентацій оригінального джазового матеріалу на-живо – а це вже і само по собі немало. Та в рамках проекту відтепер відбувається і видання записів найбільш вдалих концертів у Джаз-Колі. У жовтні 2007-го вже видано три аудіо-диски та два DVD – і одночасна поява одразу стількох гарних платівок просто не може не радувати. А в тому, що вони гарні, сумніватися не випадає. Сезон 2007-го року і відкривав, і закривав своїми виступами, власне, Ігор Закус з Z-Бендом – і обидва концерти входять до числа виданих в цій серії. На закритті сезону прозвучала абсолютно нова програма – "Коломийки". Ну а на відкритті звучала програма "Zakus Was Here", і саме її Ви почуєте тут. До неї увійшли твори з двох останніх альбомів Ігора – не всі, звичайно, але і цих восьми треків вистачить, аби захопити і приголомшити. Тим більше, що і склад Z-Band, як завжди, на висоті: Дмитро "Бобін" Александров (тенор-саксофон), Родіон Іванов (клавішні), Володимир Шабалтас (гітара), Олександр Лебеденко (барабани). Словом, насолоджуйтесь – і чекайте на продовження. Далі неодмінно буде...
Антон Йожик Лейба


Якщо Ви справді бажаєте підтримати українське - після прослуховування, якщо музика вам сподобалась,
придбайте ліцензійний диск.
Підтримаймо вітчизняних виконавців!


Срібний реліз (на рейтинг впливає 50% завантаженого)
 Трекер:    Зареєстрований   

Завантажити / скачати українську музику



відео для новачків



 Зареєстрований:   2013-08-06 23:46
 Розмір:   543 MB 
 Оцінка музики:   5.5/10 (Голосів: 6)
   
Ваш часовий пояс: GMT + 2 Години

Нова тема   Відповісти