Завантажити та скачати торренти українською


Справа №39 / Case 39 (2009) 1080p Ukr/Eng | Sub Eng

Нові коментарі

Нова тема   Відповісти
Автор Повідомлення
[email protected] 
Новенький


З нами з: 08.01.13
Востаннє: 05.12.16
Повідомлень: 24

2013-08-06 16:52  
Справа №39 / Case 39 (2009) 1080p Ukr/Eng | Sub Eng

Справа №39 / Case 39 (2009) 1080p Ukr/Eng | Sub Eng


Жанр: трилер, жахи, містика
Країна: США, Канада



Кінокомпанія: Paramount Vantage / Paramount Pictures
Режисер: Крістіан Алверт
Актори: Рене Зельвегер, Джоділль Ферланд, Ян МакШейн, Бредлі Купер, Керрі О'Меллі, Крістал Лав, Каллам Кейт Ренні, Едріан Лестер, Джорджия Крейґ

Сюжет:
Начальство вважає, що співробітниця соціальної служби Емілі Дженкінс (Рене Зельвегер) недостатньо завалена роботою і доручає їй чергову справу № 39. Емілі повинна розібратися в непростій ситуації, що склалася в сім’ї 10-річної Ліліт. Дівчинка стверджує, що батьки хочуть зжити її зі світу і проведене розслідування начебто підтверджує слова дитини. Недбайливі батьки опиняються за ґратами і Емілі добивається дозволу стати опікуном Ліліт. Проте незабаром, героїня фільму починає усвідомлювати, що в історії дівчинки не все так однозначно. З появою дитини, в житті Емілі та її знайомих починають відбуватися загадкові, нез’ясовні і вельми страшні явища, які не раз змусять Емілі пошкодувати про своє рішення.


Тривалість: 01:49:25
Якість: 1080p
Відео:
кодек:
розмір кадру: 1920x816
бітрейт: 5264 кб/с

Аудіо:
мова: українська
переклад: багатоголосий закадровий
кодек: 5.1
бітрейт: 448 кб/с

Переклад і озвучення виконано:
студією "Так Треба Продакшн" на замовлення телеканалу

Субтитри:
мова: англійська
тип: програмні (м'які)
формат: *.srt

Аудіо 2 (окремо):
мова: англійська
переклад: оригінал
кодек: 5.1
бітрейт: 448 кб/с
MediaInfo
Format : Matroska
Format version : Version 4 / Version 2
File size : 4.37 GiB
Duration : 1h 49mn
Overall bit rate : 5 712 Kbps
Movie name : Case 39 (2009) 1080p | Release by Y.C.
Encoded date : UTC 2013-08-06 14:21:51
Writing application : mkvmerge v6.3.0 ('You can't stop me!') built on Jun 28 2013 20:09:41
Writing library : libebml v1.3.0 + libmatroska v1.4.0

Video
ID : 1
Format : AVC
Format/Info : Advanced Video Codec
Format profile : [email protected]
Format settings, CABAC : Yes
Format settings, ReFrames : 5 frames
Codec ID : V_MPEG4/ISO/AVC
Duration : 1h 49mn
Bit rate : 5 264 Kbps
Width : 1 920 pixels
Height : 816 pixels
Display aspect ratio : 2.35:1
Frame rate mode : Constant
Frame rate : 23.976 fps
Color space : YUV
Chroma subsampling : 4:2:0
Bit depth : 8 bits
Scan type : Progressive
Bits/(Pixel*Frame) : 0.140
Stream size : 3.94 GiB (90%)
Writing library : core 124 r2197 69a0443
Encoding settings : cabac=1 / ref=5 / deblock=1:0:0 / analyse=0x3:0x133 / me=umh / subme=10 / psy=1 / psy_rd=1.00:0.10 / mixed_ref=1 / me_range=32 / chroma_me=1 / trellis=2 / 8x8dct=1 / cqm=0 / deadzone=21,11 / fast_pskip=0 / chroma_qp_offset=-3 / threads=6 / sliced_threads=0 / nr=0 / decimate=1 / interlaced=0 / bluray_compat=0 / constrained_intra=0 / bframes=6 / b_pyramid=2 / b_adapt=2 / b_bias=0 / direct=3 / weightb=1 / open_gop=0 / weightp=2 / keyint=240 / keyint_min=24 / scenecut=40 / intra_refresh=0 / rc_lookahead=60 / rc=2pass / mbtree=1 / bitrate=5264 / ratetol=1.0 / qcomp=0.65 / qpmin=0 / qpmax=69 / qpstep=4 / cplxblur=20.0 / qblur=0.5 / ip_ratio=1.40 / aq=1:1.00
Default : Yes
Forced : No

Audio
ID : 2
Format : AC-3
Format/Info : Audio Coding 3
Mode extension : CM (complete main)
Format settings, Endianness : Big
Codec ID : A_AC3
Duration : 1h 49mn
Bit rate mode : Constant
Bit rate : 448 Kbps
Channel(s) : 6 channels
Channel positions : Front: L C R, Side: L R, LFE
Sampling rate : 48.0 KHz
Bit depth : 16 bits
Compression mode : Lossy
Stream size : 351 MiB (8%)
Title : MVO "Так Треба Продакшн" @ 5.1 | 448 kbps
Language : Ukrainian
Default : Yes
Forced : No

Text
ID : 3
Format : UTF-8
Codec ID : S_TEXT/UTF8
Codec ID/Info : UTF-8 Plain Text
Title : Full @ SRT
Language : English
Default : No
Forced : No
Скріншоти
Джерело: &
Особиста оцінка: 10 - без зайвих вагань рекомендую всім!


 Трекер:    Зареєстрований   

Завантажити / скачати фільм українською



відео для новачків



 Зареєстрований:   2013-08-06 16:52
 Розмір:   4.37 GB 
 Оцінка фільму:   9.8/10 (Голосів: 13)
   
Інші релізи
   Справа №39 / Case 39 (2009) Ukr/Eng | Sub Eng Dark Invader  0 / 0   2.18 GB   2013-04-25 14:17 
   Справа №39 / Case 39 (2009) AVC Ukr/Eng | Sub Eng imonko  4 / 0   2.18 GB   2012-03-03 21:48 
AngryBirdsUA 
Свій


З нами з: 24.02.10
Востаннє: 07.12.16
Повідомлень: 2848

2013-08-06 17:06  
за правилами має бути ще оригінальна доріжка.
[email protected] 
Новенький


З нами з: 08.01.13
Востаннє: 05.12.16
Повідомлень: 24

2013-08-06 17:11  
Vasua95
цей ріп\реліз розраховано для запису на DVD5 (4.37 GB)
тому оригінальної доріжки недодав

AngryBirdsUA 
Свій


З нами з: 24.02.10
Востаннє: 07.12.16
Повідомлень: 2848

2013-08-06 17:13  
Цитата:
6. Оригінальна доріжка обов'язкова у всіх релізах HD, крім 720p-mini та багатосерійних.

[email protected] 
Новенький


З нами з: 08.01.13
Востаннє: 05.12.16
Повідомлень: 24

2013-08-06 17:34  
Vasua95
ок зараз буде

skuline 
Свій


З нами з: 17.12.11
Востаннє: 07.12.16
Повідомлень: 114

2013-08-07 12:48  
Один з кращих жахливчиків, рекомендую до перегляду.
vic88888888 
Свій


З нами з: 11.11.10
Востаннє: 30.11.16
Повідомлень: 66

2013-08-07 21:18  
Дякую за реліз! Колись хотів "зкліпати", а тут будь ласка усе готове, ще й так мало важить. А фільм, дійсно, тримає у напруженні, шкода що через розв"язку другий раз вже не так цікаво.
[email protected] 
Новенький


З нами з: 08.01.13
Востаннє: 05.12.16
Повідомлень: 24

2013-08-07 21:57  
будь ласка)
PUMAUA 
Свій


З нами з: 07.11.09
Востаннє: 06.12.16
Повідомлень: 56

2013-08-09 20:56  
До жанру можна додати "Містика".
Дитина файно роль зіграла.

zaika 
VIP


З нами з: 01.07.12
Востаннє: 07.12.16
Повідомлень: 950

2013-08-19 16:35  
З любою іншою артисткою це булаб звичайна містична страшилка. Але з Рене Зельвегер це дуже сильний і серйозний фільм. Спасибі. 10/10.
Maters 
VIP


З нами з: 27.03.12
Востаннє: 07.12.16
Повідомлень: 1162

2015-12-24 20:10  
А от я чомусь не дуже нею захоплююсь хоча зіграла таки добре))
Не супер, але 7/10 можна спокійно ставити. Дякую!

bigriding1 
Новенький


З нами з: 20.07.14
Востаннє: 20.11.16
Повідомлень: 3

2015-12-29 01:11  
Станьте на роздачу будь-ласка!
Parsek 
Новенький


З нами з: 19.02.14
Востаннє: 25.11.16
Повідомлень: 3

2016-11-19 13:36  
Трохи швидкостіHappy
Ваш часовий пояс: GMT + 2 Години

Нова тема   Відповісти