Завантажити та скачати торренти українською


Хороший син / The Good Son (1993) 720p 2xUkr/Eng | sub Eng

Нові коментарі

Нова тема   Відповісти
Останній раз роздавалося tribus (2016-12-04)
Автор Повідомлення
Sando7 
Відео Гуртом - запис з ТБ
Відео Гуртом - запис з ТБ


З нами з: 04.05.09
Востаннє: 04.12.16
Повідомлень: 837

2013-08-04 15:57  
Хороший син / The Good Son (1993) 720p 2xUkr/Eng | sub Eng

Хороший син / The Good Son (1993) 720p 2xUkr/Eng | sub Eng


Жанр: трилер, драма
Країна: США



Кінокомпанія: Twentieth Century Fox Film Corporation
Режисер: Джозеф Рубен / Joseph Ruben
Актори: Маколей Калкін, Елайджа Вуд, Венді Крюсон, Девід Морс, Деніел Х'ю Келлі, Жаклін Брукс, Куінн Калкін, Ешлі Кроу, Ґай Штраусс, Кейт Брава...

Сюжет:
Генрі Еванс — дивний і слухняний хлопчина. Генрі обожнює ігри. Особливо милі його серцю ігри зі смертельним завершенням.
Ні його батьки, ні сестричка не розуміють, що за чарівною, ангельською усмішкою Генрі ховається зла, диявольська сутність.
Єдиним, хто розпізнав монстра в "милому" хлопчині, став його двоюрідний брат Марк, що приїхав у дім Евансів після смерті матері. Та це відкриття стало для Марка фатальним: садиста-братика зовсім не влаштовувало, що хто-небудь може знати про його таємні розваги.
І Генрі запрошує Марка зіграти в одну із своїх смертельних ігор.


Тривалість: 01:26:48
Якість: 720p
Відео:
кодек:
розмір кадру: 1280 x 720
бітрейт: 3894 кб/с

Аудіо # 1:
мова: українська
переклад: двоголосий закадровий
кодек: 2.0
бітрейт: 192 кб/с

Аудіо # 2:
мова: українська
переклад: двоголосий закадровий
кодек: 2.0
бітрейт: 192 кб/с
Через відсутність озвучення з 00:11:00 по 00:13:00 залатано звуком з каналу 1+1
Аудіо # 3:
мова: англійська
переклад: оригінал
кодек: 2.0
бітрейт: ~160 кб/с

Джерело озвучення:


Субтитри:
мова: англійська
тип: програмні (м'які)
формат: *.srt
MediaInfo
Complete name : C:\Users\sando7\Desktop\Reliz\The Good Son (1993) [2xUkr & Eng] 720p [Hurtom].mkv
Format : Matroska
Format version : Version 2
File size : 2.74 GiB
Duration : 1h 26mn
Overall bit rate : 4 516 Kbps
Movie name : The Good Son (1993)
Encoded date : UTC 2013-08-04 13:40:33
Writing application : mkvmerge v5.6.0 ('Kenya Kane') built on May 27 2012 16:44:04
Writing library : libebml v1.2.3 + libmatroska v1.3.0

Video
ID : 1
Format : AVC
Format/Info : Advanced Video Codec
Format profile : [email protected]
Format settings, CABAC : No
Format settings, ReFrames : 2 frames
Codec ID : V_MPEG4/ISO/AVC
Duration : 1h 26mn
Width : 1 280 pixels
Height : 720 pixels
Display aspect ratio : 16:9
Frame rate mode : Constant
Frame rate : 23.976 fps
Color space : YUV
Chroma subsampling : 4:2:0
Bit depth : 8 bits
Scan type : Progressive
Language : English
Default : Yes
Forced : No
Color primaries : BT.709
Transfer characteristics : BT.709
Matrix coefficients : BT.709

Audio #1
ID : 2
Format : AC-3
Format/Info : Audio Coding 3
Mode extension : CM (complete main)
Format settings, Endianness : Big
Codec ID : A_AC3
Duration : 1h 26mn
Bit rate mode : Constant
Bit rate : 192 Kbps
Channel(s) : 2 channels
Channel positions : Front: L R
Sampling rate : 48.0 KHz
Bit depth : 16 bits
Compression mode : Lossy
Stream size : 119 MiB (4%)
Title : 1+1
Language : Ukrainian
Default : Yes
Forced : Yes

Audio #2
ID : 3
Format : AC-3
Format/Info : Audio Coding 3
Mode extension : CM (complete main)
Format settings, Endianness : Big
Codec ID : A_AC3
Duration : 1h 26mn
Bit rate mode : Constant
Bit rate : 192 Kbps
Channel(s) : 2 channels
Channel positions : Front: L R
Sampling rate : 48.0 KHz
Bit depth : 16 bits
Compression mode : Lossy
Stream size : 119 MiB (4%)
Title : NOVY Channel
Language : Ukrainian
Default : No
Forced : No

Audio #3
ID : 4
Format :
Format/Info : Advanced Audio Codec
Format profile : LC
Codec ID : A_AAC
Duration : 1h 26mn
Channel(s) : 2 channels
Channel positions : Front: L R
Sampling rate : 48.0 KHz
Compression mode : Lossy
Title : A_AAC (LC) 2.0 ch ~ 160 kbps - original
Language : English
Default : No
Forced : No

Text
ID : 5
Format : UTF-8
Codec ID : S_TEXT/UTF8
Codec ID/Info : UTF-8 Plain Text
Language : English
Default : No
Forced : No

Menu
00:00:00.000 : en:Main Titles
00:03:12.000 : en:A Son's Loss
00:06:46.000 : en:Dad's Difficult Decision
00:09:11.000 : en:Masked In Maine
00:15:00.000 : en:Playing With Fire
00:24:31.000 : en:Mad Dogs And Helpless Cats
00:28:24.000 : en:Missing Mom
00:31:40.000 : en:Warning Shot
00:35:14.000 : en:Mr. Highway
00:41:12.000 : en:Analyzing Evil
00:48:43.000 : en:Hide And Seek
00:52:40.000 : en:On Thin Ice
00:57:51.000 : en:Cries And Lies For Help
01:08:23.000 : en:Ducking Responsibility
01:15:07.000 : en:Susan's Choice
01:22:30.000 : en:End Credits
Скріншоти





Джерело: & ріп взято з


Срібний реліз (на рейтинг впливає 50% завантаженого)
 Трекер:    Зареєстрований   

Завантажити / скачати фільм українською



відео для новачків



 Зареєстрований:   2013-08-05 18:00
 Розмір:   2.74 GB 
 Оцінка фільму:   8.8/10 (Голосів: 11)
   
Інші релізи
   Хороший син / The Good Son (1993) 2xUkr/Eng Sando7  1 / 0   1.45 GB   2012-09-10 23:23 
   Хороший син / The Good Son (1993) AVC Ukr/Eng | sub Eng Тирік  0 / 0   1.27 GB   2010-10-05 11:25 
BMK12 
Відео Гуртом - підтримка та поширення
Відео Гуртом - підтримка та поширення


З нами з: 13.04.09
Востаннє: 02.12.16
Повідомлень: 2981

2013-08-04 16:12  
Цікаво, як в нього вийшло зіграти цю роль?
Sando7 
Відео Гуртом - запис з ТБ
Відео Гуртом - запис з ТБ


З нами з: 04.05.09
Востаннє: 04.12.16
Повідомлень: 837

2013-08-05 12:22  
знайшов у себе звук сирий з SAT і мабуть перезведу з ним (зараз там звук з тб архіву). так що хто збирається вантажити не поспішайте я сьогодні ввечері оновлю реліз.
............................................
оновив ...тепер з кращим звуком [запис сирця з SAT 1+1], прошу завантажити свіжий торрент файл

tribus 
VIP


З нами з: 22.10.14
Востаннє: 04.12.16
Повідомлень: 555

2016-12-02 00:03  


Роздачу відновлено!


Повернуто з ex.ua.

Ваш часовий пояс: GMT + 2 Години

Нова тема   Відповісти