Завантажити та скачати торренти українською


Dikanda - Muzyka czterech stron wschodu (2000) [FLAC] | Folk

Нові коментарі

Нова тема   Відповісти
Останній раз роздавалося ssTAss (2016-11-28)
Автор Повідомлення
ssTAss 
Модератор музики


З нами з: 05.07.08
Востаннє: 05.12.16
Повідомлень: 10939

2013-08-03 20:53  
Dikanda - Muzyka czterech stron wschodu (2000) [FLAC] | Folk

Dikanda - Muzyka czterech stron wschodu (2000) [FLAC] | Folk


Стиль: Folk
Країна, місто: Польща, Щецін
Сайти: Офіційний сайт
Видавець: Tylkomuzyka.pl ‎(TCD 004)
Виконавці:
Kasia Dziubak - скрипка, вокал
Ania Witczak - акордеон, вокал
Violina Janiszewska - вокал
Daniel Kaczmarczyk - бубен
Piotr Rejdak - гітара
Grzegorz Kolbrecki - контрабас

а також:
Paweł Baska - контрабас
Tomasz Pikulski - контрабас
Krzysztof Trebunia -Tutka - вокал
Пісні:
    1 Dikanda
    2 Winko
    3 Gajde Jano
    4 Saluto
    5 Dila Dila
    6 Folk song (mel. żydowska)
    7 Pagnulisja
    8 Hosadyna
    9 Pakulele
    10 Ketrin Ketrin
    11 Stoho bohu
    12 Sogonie
    13 Jovano Jovanke
    14 Żurawli
    15 Melodia żydowska ("Przebitki")
    16 Scha still
    17 Świeci miesiąc
log
Exact Audio Copy V0.99 prebeta 1 from 25. May 2007

EAC extraction logfile from 22. September 2007, 10:55

Dikanda / Muzyka czterech stron wschodu

Used drive : HL-DT-STDVD-ROM GDR8164B Adapter: 1 ID: 1

Read mode : Secure
Utilize accurate stream : Yes
Defeat audio cache : Yes
Make use of C2 pointers : No

Read offset correction : 102
Overread into Lead-In and Lead-Out : No
Fill up missing offset samples with silence : Yes
Delete leading and trailing silent blocks : No
Used interface : Native Win32 interface for Win NT & 2000
Gap handling : Appended to previous track

Used output format : User Defined Encoder
Selected bitrate : 128 kBit/s
Quality : High
Add ID3 tag : No
Command line compressor : c:\Program Files\FLAC\flac.exe
Additional command line options : -8 -V -T "ARTIST=%a" -T "TITLE=%t" -T "ALBUM=%g" -T "DATE=%y" -T "TRACKNUMBER=%n" -T "GENRE=%m" -T "COMMENT=EAC FLAC -8" %s

TOC of the extracted CD

Track | Start | Length | Start sector | End sector
---------------------------------------------------------
1 | 0:00.00 | 4:43.70 | 0 | 21294
2 | 4:43.70 | 3:48.34 | 21295 | 38428
3 | 8:32.29 | 4:12.44 | 38429 | 57372
4 | 12:44.73 | 2:37.57 | 57373 | 69204
5 | 15:22.55 | 2:50.47 | 69205 | 82001
6 | 18:13.27 | 1:28.56 | 82002 | 88657
7 | 19:42.08 | 0:52.55 | 88658 | 92612
8 | 20:34.63 | 2:13.46 | 92613 | 102633
9 | 22:48.34 | 6:09.21 | 102634 | 130329
10 | 28:57.55 | 3:36.06 | 130330 | 146535
11 | 32:33.61 | 2:14.12 | 146536 | 156597
12 | 34:47.73 | 4:55.62 | 156598 | 178784
13 | 39:43.60 | 4:39.02 | 178785 | 199711
14 | 44:22.62 | 5:18.08 | 199712 | 223569
15 | 49:40.70 | 4:45.65 | 223570 | 245009
16 | 54:26.60 | 6:01.71 | 245010 | 272155
17 | 60:28.56 | 1:46.32 | 272156 | 280137

Track 1

Filename h:\ogg\01 - Dikanda.wav

Pre-gap length 0:00:02.00

Peak level 95.8 %
Track quality 99.9 %
Test CRC D4BB6F4F
Copy CRC D4BB6F4F
Copy OK

Track 2

Filename h:\ogg\02 - Winko.wav

Peak level 98.9 %
Track quality 99.9 %
Test CRC 10ED63A9
Copy CRC 10ED63A9
Copy OK

Track 3

Filename h:\ogg\03 - Gajde Jano.wav

Peak level 91.8 %
Track quality 100.0 %
Test CRC 3E471318
Copy CRC 3E471318
Copy OK

Track 4

Filename h:\ogg\04 - Saluto.wav

Peak level 94.6 %
Track quality 100.0 %
Test CRC C66AFEB0
Copy CRC C66AFEB0
Copy OK

Track 5

Filename h:\ogg\05 - Dila dila.wav

Peak level 93.1 %
Track quality 100.0 %
Test CRC F8C39FD6
Copy CRC F8C39FD6
Copy OK

Track 6

Filename h:\ogg\06 - Folk song (mel. zydowska).wav

Peak level 97.0 %
Track quality 100.0 %
Test CRC F5B8A13B
Copy CRC F5B8A13B
Copy OK

Track 7

Filename h:\ogg\07 - Pagnulisja.wav

Peak level 76.8 %
Track quality 100.0 %
Test CRC 4D412DCF
Copy CRC 4D412DCF
Copy OK

Track 8

Filename h:\ogg\08 - Hosadyna.wav

Peak level 98.4 %
Track quality 100.0 %
Test CRC 7E07D973
Copy CRC 7E07D973
Copy OK

Track 9

Filename h:\ogg\09 - Pakulele.wav

Peak level 97.2 %
Track quality 99.9 %
Test CRC 4C75C69E
Copy CRC 4C75C69E
Copy OK

Track 10

Filename h:\ogg\10 - Ketrin Ketrin.wav

Peak level 88.4 %
Track quality 99.9 %
Test CRC 1E700F45
Copy CRC 1E700F45
Copy OK

Track 11

Filename h:\ogg\11 - Stoho bohu.wav

Peak level 85.8 %
Track quality 99.9 %
Test CRC 2561E3D7
Copy CRC 2561E3D7
Copy OK

Track 12

Filename h:\ogg\12 - Sogonie.wav

Peak level 96.0 %
Track quality 100.0 %
Test CRC 62EF87F8
Copy CRC 62EF87F8
Copy OK

Track 13

Filename h:\ogg\13 - Jovano Jovanke.wav

Peak level 96.0 %
Track quality 100.0 %
Test CRC BDE3B7DD
Copy CRC BDE3B7DD
Copy OK

Track 14

Filename h:\ogg\14 - Zurawli.wav

Peak level 92.6 %
Track quality 99.9 %
Test CRC F7DA90BB
Copy CRC F7DA90BB
Copy OK

Track 15

Filename h:\ogg\15 - Melodia zydowska ('Przebitki').wav

Peak level 92.9 %
Track quality 100.0 %
Test CRC B8A3F1F8
Copy CRC B8A3F1F8
Copy OK

Track 16

Filename h:\ogg\16 - Scha still.wav

Peak level 92.4 %
Track quality 99.9 %
Test CRC E0C9D597
Copy CRC E0C9D597
Copy OK

Track 17

Filename h:\ogg\17 - Swieci miesiac.wav

Peak level 91.7 %
Track quality 100.0 %
Test CRC F21F8F38
Copy CRC F21F8F38
Copy OK

No errors occurred

End of status report
fooCDtect
fooCDtect - foobar2000 + auCDtect, baralgin.

auCDtect: CD records authenticity detector, version 0.8.2
Copyright (c) 2004 Oleg Berngardt. All rights reserved.
Copyright (c) 2004 Alexander Djourik. All rights reserved.

mode: 0

===========================================
Track: 01 - Dikanda
Quality: CDDA 100%
===========================================
Track: 02 - Winko
Quality: CDDA 100%
===========================================
Track: 03 - Gajde Jano
Quality: CDDA 100%
===========================================
Track: 04 - Saluto
Quality: CDDA 100%
===========================================
Track: 05 - Dila dila
Quality: CDDA 100%
===========================================
Track: 06 - Folk song (mel. żydowska)
Quality: CDDA 100%
===========================================
Track: 07 - Pagnulisja
Quality: CDDA 100%
===========================================
Track: 08 - Hosadyna
Quality: CDDA 100%
===========================================
Track: 09 - Pakulele
Quality: CDDA 100%
===========================================
Track: 10 - Ketrin Ketrin
Quality: CDDA 100%
===========================================
Track: 11 - Stoho bohu
Quality: CDDA 100%
===========================================
Track: 12 - Sogonie
Quality: CDDA 100%
===========================================
Track: 13 - Jovano Jovanke
Quality: CDDA 99%
===========================================
Track: 14 - Żurawli
Quality: CDDA 100%
===========================================
Track: 15 - Melodia żydowska ('Przebitki')
Quality: CDDA 100%
===========================================
Track: 16 - Scha still
Quality: CDDA 100%
===========================================
Track: 17 - Świeci miesiąc
Quality: CDDA 100%
===========================================
Тривалість: 01:02:15
Мова: польська (2,8,17), українська (11), відсутня (6,12,15), російська (7), решта - ?
Аудіо-кодек: FLAC
Бітрейт: 920 кб/с
Джерело: польський трекер (зібрав в образ, виправив теги)
Додаткова інформація:
польською
DIKANDA to słowo, które oznaczać miało zarówno wszystko jak i nic. Zostało bowiem wymyślone jak wiele tekstów śpiewanych przez tę grupę. Często bowiem emocje dużo żywsze i szybsze są od wyuczonych na pamięć słów. Po jakimś czasie jednak okazało się, iż w języku jednego z plemion afrykańskich Dikanda znaczy - RODZINA. Piękna muzyka, energia, radość grania, radość śpiewania to nieodłączne cechy każdego wykonywanego przez tę grupę koncertu.
Zespół powstał w 1997 roku gdy zupełnie niezobowiązująco grać ze sobą rozpoczęła grupa zaprzyjaźnionych osób. Grono członków zespołu jak i grono słuchaczy, systematycznie powiększały się. Do grającej na akordeonie i śpiewającej Ani Witczak kolejno dołączali: Piotr Rejdak (gitara), Violina Janiszewska (śpiew), Daniel Kaczmarczyk (bębny), Paweł Baska (kontrabas), Kasia Dziubak (skrzypce). W międzyczasie grającego na kontrabasie Pawła Baskę, zastąpił Tomasz Pikulski, a następnie i już ostatecznie góral z Białego Dunajca Grzegorz Kolbrecki. Gościnnie też śpiewa i gra na skrzypcach Marcin Zaziębło - góral z Tylmanowej.
Od kilku lat grupa regularnie koncertuje nie tylko w Polsce, ale także za granicą kraju. Zespół wystąpił już w ramach największych festiwali w Austrii, Szwajcarii i Niemczech .

Wykonywany repertuar grupa nazwała Muzyką Czterech Stron Wschodu. Pieśni ludowe, wędrujące, podawane z ust do ust, powstałe w Macedonii, na Ukrainie, w Rosji, Bułgarii, Polsce śpiewane przez Żydów, Cyganów, Węgrów są podstawą do budowy nowych aranżacji.


Якщо Ви справді бажаєте підтримати українське - після прослуховування, якщо музика вам сподобалась,
придбайте ліцензійний диск.
Підтримаймо вітчизняних виконавців!


Срібний реліз (на рейтинг впливає 50% завантаженого)
 Трекер:    Зареєстрований   

Завантажити / скачати українську музику



відео для новачків



 Зареєстрований:   2013-08-03 20:53
 Розмір:   415 MB 
 Оцінка музики:   6.6/10 (Голосів: 8)
   
Ваш часовий пояс: GMT + 2 Години

Нова тема   Відповісти