Завантажити та скачати торренти українською


Оз: Великий та Могутній / Oz the Great and Powerful (2013) AVC

Нові коментарі

Нова тема   Відповісти
Автор Повідомлення
Drool 
VIP


З нами з: 17.04.10
Востаннє: 08.12.16
Повідомлень: 1271

2013-08-02 14:58  
Оз: Великий та Могутній / Oz the Great and Powerful (2013) AVC

Жанр: фентезі, пригоди, комедія, сімейний
Країна: США



Кінокомпанія: Walt Disney Pictures, Roth Films
Режисер: Сем Реймі
Актори: Міла Куніс, Джеймс Франко, Рейчел Уайз, Мішель Вільямс, Брюс Кемпбелл, Зак Брафф, Джої Кінг, Талія Аківа, Ебігейл Спенсер, Стівен Р. Харт

Сюжет:
Коли ураган закидає циркового фокусника Оскара Діґса із запиленого Канзасу в чарівну країну Оз, схильний до шахрайства циркач вважає, що він піймав удачу за хвіст - адже за допомогою своїх трюків він з легкістю може добути в нових землях і славу і багатство.

Однак його чекає зустріч з трьома чародійками, Теодорою, Еванорою і Глендою, які сумніваються в тому, чи це той великий чарівник, появи якого чекали легковірні жителі країни Оз. Волею-неволею, прибулець виявляється втягнутим у протистояння епічного масштабу, і йому доводиться використовувати весь свій «магічний» арсенал, з додаванням краплинки справжнього чаклунства.

У ситуації вибору між Добром і Злом, Оскару Діггсу належить не тільки стати Великим і Могутнім Чарівником Країни Оз, а й трохи змінитися на краще.


Тривалість: 02:10:29
Якість:
Відео:
кодек:
розмір кадру: 1032x430
бітрейт: 2295 кб/с

Аудіо:
мова: українська
переклад: професійний дубльований
кодек: 5.1
бітрейт: 448 кб/с
Info
[info]: frame I:1696 Avg QP:15.24 size: 71850
[info]: frame P:44451 Avg QP:17.32 size: 25341
[info]: frame B:141583 Avg QP:20.51 size: 7045
[info]: consecutive B-frames: 2.6% 3.2% 7.7% 35.4% 20.3% 23.6% 3.7% 1.9% 0.6% 0.3% 0.2% 0.4%
[info]: mb I I16..4: 13.9% 61.0% 25.1%
[info]: mb P I16..4: 1.1% 7.8% 1.8% P16..4: 37.8% 19.5% 17.5% 1.9% 0.8% skip:11.8%
[info]: mb B I16..4: 0.1% 0.8% 0.3% B16..8: 34.0% 9.0% 3.5% direct: 5.0% skip:47.4% L0:38.6% L1:43.6% BI:17.9%
[info]: 8x8 transform intra:69.1% inter:54.8%
[info]: direct mvs spatial:95.8% temporal:4.2%
[info]: coded y,uvDC,uvAC intra: 84.4% 76.0% 62.7% inter: 20.3% 21.6% 8.5%
[info]: i16 v,h,dc,p: 46% 11% 7% 36%
[info]: i8 v,h,dc,ddl,ddr,vr,hd,vl,hu: 12% 11% 4% 9% 13% 13% 13% 11% 13%
[info]: i4 v,h,dc,ddl,ddr,vr,hd,vl,hu: 12% 9% 4% 9% 15% 13% 14% 11% 14%
[info]: i8c dc,h,v,p: 49% 18% 17% 16%
[info]: Weighted P-Frames: Y:5.5% UV:3.1%
[info]: ref P L0: 53.1% 12.0% 13.8% 6.0% 4.1% 3.5% 2.6% 1.7% 1.4% 1.6% 0.2% 0.0%
[info]: ref B L0: 79.6% 9.3% 4.7% 2.0% 1.6% 1.1% 1.0% 0.5% 0.3%
[info]: ref B L1: 93.1% 6.9%
[info]: kb/s:2294.53
encoded 187730 frames, 15.91 fps, 2294.53 kb/s
MediaInfo
General
Unique ID : 275887308602239725104668298092813429694 (0xCF8DF6800C16D651CBF50CAC74F72BBE)
Complete name : /mnt/disk/Video/Oz.The.Great.and.Powerful.2013.Ukr.Dub.AVC.mkv
Format : Matroska
File size : 2.50 GiB
Duration : 2h 10mn
Overall bit rate : 2 744 Kbps
Movie name : Оз: Великий та могутній / Oz: The Great and Powerful (2013) AVC | -=POTROKS=-
Encoded date : UTC 2013-08-02 11:44:26
Writing application : mkvmerge v4.8.0 ('I Got The...') сборка от Aug 22 2011 13:16:28
Writing library : libebml v1.2.0 + libmatroska v1.1.0

Video
ID : 1
Format : AVC
Format/Info : Advanced Video Codec
Format profile : [email protected]
Format settings, CABAC : Yes
Format settings, ReFrames : 10 frames
Codec ID : V_MPEG4/ISO/AVC
Duration : 2h 10mn
Bit rate : 2 295 Kbps
Width : 1 032 pixels
Height : 430 pixels
Display aspect ratio : 2.40:1
Frame rate : 23.976 fps
Color space : YUV
Chroma subsampling : 4:2:0
Bit depth : 8 bits
Scan type : Progressive
Bits/(Pixel*Frame) : 0.216
Stream size : 2.04 GiB (82%)
Title : Oz the Great and Powerful
Writing library : core 125 r2208 d9d2288
Encoding settings : cabac=1 / ref=10 / deblock=1:-2:-2 / analyse=0x3:0x133 / me=umh / subme=9 / psy=1 / psy_rd=1.01:0.00 / mixed_ref=1 / me_range=32 / chroma_me=1 / trellis=2 / 8x8dct=1 / cqm=0 / deadzone=21,11 / fast_pskip=0 / chroma_qp_offset=-2 / threads=9 / lookahead_threads=1 / sliced_threads=0 / nr=0 / decimate=1 / interlaced=0 / bluray_compat=0 / constrained_intra=0 / bframes=11 / b_pyramid=2 / b_adapt=2 / b_bias=0 / direct=3 / weightb=1 / open_gop=0 / weightp=2 / keyint=240 / keyint_min=23 / scenecut=40 / intra_refresh=0 / rc_lookahead=150 / rc=2pass / mbtree=1 / bitrate=2295 / ratetol=1.0 / qcomp=0.70 / qpmin=0 / qpmax=69 / qpstep=4 / cplxblur=20.0 / qblur=0.5 / vbv_maxrate=20000 / vbv_bufsize=20000 / nal_hrd=none / ip_ratio=1.35 / aq=1:0.80

Audio
ID : 2
Format : AC-3
Format/Info : Audio Coding 3
Mode extension : CM (complete main)
Codec ID : A_AC3
Duration : 2h 10mn
Bit rate mode : Constant
Bit rate : 448 Kbps
Channel(s) : 6 channels
Channel positions : Front: L C R, Side: L R, LFE
Sampling rate : 48.0 KHz
Bit depth : 16 bits
Compression mode : Lossy
Stream size : 418 MiB (16%)
Title : Рідна мова
Language : Ukrainian

Text
ID : 3
Format : UTF-8
Codec ID : S_TEXT/UTF8
Codec ID/Info : UTF-8 Plain Text
Title : Forced
Language : Ukrainian
Джерело озвучення:


Субтитри:
мова: українська
тип: програмні (м'які) | форсовані
формат: *.srt

Скріншоти









Походження: відеоряд взято з ріпу
Особиста оцінка: 10 - без зайвих вагань рекомендую всім!


 Трекер:    Зареєстрований   

Завантажити / скачати фільм українською



відео для новачків



 Зареєстрований:   2013-08-02 14:58
 Розмір:   2.5 GB 
 Оцінка фільму:   9.6/10 (Голосів: 17)
   
darkgems 
Свій


З нами з: 31.07.12
Востаннє: 13.11.16
Повідомлень: 56

2013-08-10 01:50  
Та спочатку один розмір картинкі а потім змінюється! Що за прикол?
Givi 
Модератор відео


З нами з: 25.02.08
Востаннє: 08.12.16
Повідомлень: 2862

2013-08-10 21:50  
darkgems написано:
Що за прикол?

Анаморф Wink (1)

Drool 
VIP


З нами з: 17.04.10
Востаннє: 08.12.16
Повідомлень: 1271

2013-08-11 11:08  
Givi написано:
Анаморф

До чого тут анаморф? Просто так режисер задумав - спочатку стара чорнобіла картинка звичайного формату. Потім переходить в яскраву насичену картинку широкого формату.

darkgems 
Свій


З нами з: 31.07.12
Востаннє: 13.11.16
Повідомлень: 56

2013-08-14 00:12  
Дякую!
Ваш часовий пояс: GMT + 2 Години

Нова тема   Відповісти