Завантажити та скачати торренти українською


Ворон / The Raven (2012) 1080p Ukr/Eng | Sub Eng

Нові коментарі

Нова тема   Відповісти
Автор Повідомлення
Anonymous 







2013-08-01 16:42  
Ворон / The Raven (2012) 1080p Ukr/Eng | Sub Eng



Жанр: трилер, детектив
Країна: США, Угорщина, Іспанія



Кінокомпанія: Intrepid Pictures, FilmNation Entertainment, Galavis Film
Режисер: Джеймс МакТіг / James McTeigue
Актори: Джон К'юсак / John Cusack, Люк Еванс / Luke Evans, Еліс Ів / Alice Eve, Брендан Глісон / Brendan Gleeson, Кевін МакНеллі / Kevin McNally, Олівер Джексон-Коен / Oliver Jackson-Cohen, Брендан Койл / Brendan Coyle, Пем Ферріс / Pam Ferris та інші

Сюжет:
В центрі сюжету - сам Едгар Аллан По, котрий разом з детективом Емметом Філдсом переслідує серійного вбивцю, чиї злочини з точністю повторюють сцени з його творів, кидаючи цим виклик самому письменнику.
Та у цій смертельній небезпеці герой знаходить сили не лише для інтелектуального поєдинку з монстром. На краю загибелі він зазирає за межі буття у пошуках натхнення.


рейтинг MPAA: R - особам до 17 років обов'язкова присутність батьків або дорослого опікуна
Вікова категорія: 16+

Тривалість: 01:50:52
Якість: 1080p
Відео:
кодек:
розмір кадру: 1920x800
бітрейт: 8855 кб/с

Аудіо # 1:
мова: українська - Студія «Ді Ар»
переклад: багатоголосий закадровий
Ролі озвучили: Михайло Жонін (Джон К'юзак/Едґар Аллан По), Андрій Самінін (Люк Еванс / Детектив Філдс), Катерина Брайковська (Еліс Ів / Емілі Гамільтон), Євген Пашин, Олег Лепенець, Георгій Гавриленко (Сем Газельдін / Айвен), Катерина Буцька? та інші.
кодек: 5.1
бітрейт: 384 кб/с

Аудіо # 2:
мова: англійська
переклад: оригінал
кодек: 5.1
бітрейт: 640 кб/с

Субтитри:
мова: англійська
тип: програмні (м'які)
формат: *.srt

Збережено оригінальні розділи, як на Blu-ray.
MediaInfo
General
Unique ID : 226814534967263469664383314353889009755 (0xAAA2E3F5F1E71C98842A2699025CE05B)
Complete name : The.Raven.2012..1080p.Ukr.Eng.[sub.Eng].mkv
Format : Matroska
Format version : Version 4 / Version 2
File size : 7.64 GiB
Duration : 1h 50mn
Overall bit rate : 9 872 Kbps
Movie name : Ворон / The Raven (2012)
Encoded date : UTC 2013-07-31 04:34:21
Writing application : mkvmerge v6.3.0 ('You can't stop me!') built on Jun 28 2013 20:09:41
Writing library : libebml v1.3.0 + libmatroska v1.4.0

Video
ID : 1
Format : AVC
Format/Info : Advanced Video Codec
Format profile : [email protected]
Format settings, CABAC : Yes
Format settings, ReFrames : 5 frames
Codec ID : V_MPEG4/ISO/AVC
Duration : 1h 50mn
Bit rate : 8 855 Kbps
Width : 1 920 pixels
Height : 800 pixels
Display aspect ratio : 2.40:1
Frame rate mode : Constant
Frame rate : 23.976 fps
Color space : YUV
Chroma subsampling : 4:2:0
Bit depth : 8 bits
Scan type : Progressive
Bits/(Pixel*Frame) : 0.240
Stream size : 6.70 GiB (88%)
Title : Ворон / The Raven (2012) [N1NT3NDO]
Writing library : core 135 r2345 f0c1c53
Encoding settings : cabac=1 / ref=5 / deblock=1:-3:-3 / analyse=0x3:0x133 / me=umh / subme=10 / psy=1 / psy_rd=1.00:0.00 / mixed_ref=1 / me_range=32 / chroma_me=1 / trellis=2 / 8x8dct=1 / cqm=0 / deadzone=21,11 / fast_pskip=0 / chroma_qp_offset=-2 / threads=12 / lookahead_threads=1 / sliced_threads=0 / nr=0 / decimate=0 / interlaced=0 / bluray_compat=0 / constrained_intra=0 / bframes=6 / b_pyramid=2 / b_adapt=2 / b_bias=0 / direct=3 / weightb=1 / open_gop=0 / weightp=2 / keyint=240 / keyint_min=23 / scenecut=40 / intra_refresh=0 / rc=2pass / mbtree=0 / bitrate=8855 / ratetol=1.0 / qcomp=0.60 / qpmin=0 / qpmax=69 / qpstep=4 / cplxblur=20.0 / qblur=0.5 / ip_ratio=1.40 / pb_ratio=1.30 / aq=1:0.70
Language : English
Default : Yes
Forced : No

Audio #1
ID : 2
Format : AC-3
Format/Info : Audio Coding 3
Mode extension : CM (complete main)
Format settings, Endianness : Big
Codec ID : A_AC3
Duration : 1h 50mn
Bit rate mode : Constant
Bit rate : 384 Kbps
Channel(s) : 6 channels
Channel positions : Front: L C R, Side: L R, LFE
Sampling rate : 48.0 KHz
Bit depth : 16 bits
Compression mode : Lossy
Stream size : 305 MiB (4%)
Title : MVO [Студія "Ді Ар"-DVD]
Language : Ukrainian
Default : Yes
Forced : No

Audio #2
ID : 3
Format : AC-3
Format/Info : Audio Coding 3
Mode extension : CM (complete main)
Format settings, Endianness : Big
Codec ID : A_AC3
Duration : 1h 50mn
Bit rate mode : Constant
Bit rate : 640 Kbps
Channel(s) : 6 channels
Channel positions : Front: L C R, Side: L R, LFE
Sampling rate : 48.0 KHz
Bit depth : 16 bits
Compression mode : Lossy
Stream size : 508 MiB (6%)
Title : Original
Language : English
Default : No
Forced : No

Text
ID : 4
Format : UTF-8
Codec ID : S_TEXT/UTF8
Codec ID/Info : UTF-8 Plain Text
Title : Eng full
Language : English
Default : No
Forced : No

Menu
00:00:00.000 : :Chapter 01
00:06:00.650 : :Chapter 02
00:11:40.156 : :Chapter 03
00:17:30.007 : :Chapter 04
00:22:07.117 : :Chapter 05
00:26:51.693 : :Chapter 06
00:30:40.088 : :Chapter 07
00:34:42.830 : :Chapter 08
00:40:36.391 : :Chapter 09
00:44:30.668 : :Chapter 10
00:50:37.034 : :Chapter 11
00:57:26.609 : :Chapter 12
01:01:36.901 : :Chapter 13
01:06:30.569 : :Chapter 14
01:12:28.260 : :Chapter 15
01:18:23.865 : :Chapter 16
01:24:18.928 : :Chapter 17
01:27:40.463 : :Chapter 18
01:34:01.344 : :Chapter 19
01:40:39.742 : :Chapter 20


Джерела та подяки: ріп відео, оригінальні звук та субтитри, українська доріжка - N1NT3NDO (рутор).

ЗАЛИШАЙТЕСЬ ЯКОМОГА ДОВШЕ НА РОЗДАЧІ!

СКАЧАВ САМ - ДАЙ СКАЧАТИ ІНШИМ


 Трекер:    Зареєстрований   

Завантажити / скачати фільм українською



відео для новачків



 Зареєстрований:   2013-08-01 16:42
 Розмір:   7.64 GB 
 Оцінка фільму:   6.3/10 (Голосів: 27)
   
Інші релізи
   Ворон / The Raven (2012) St.Bogush  4 / 0   1.46 GB   2012-08-18 02:06 
   Ворон / The Raven (2012) AVC Ukr/Eng AngryBirdsUA  4 / 0   2.18 GB   2012-07-18 18:34 
   Ворон / The Raven (2012) 720p Ukr/Eng | Sub Eng SkiF  2 / 0   4.67 GB   2012-07-16 12:08 
   Ворон / The Raven (2012) Ukr/Eng AngryBirdsUA  2 / 0   2.05 GB   2012-07-15 10:51 
   Ворон / The Raven (2012) DVD9 Ukr/Rus Givi  0 / 0   5.25 GB   2012-06-18 21:45 
Ваш часовий пояс: GMT + 2 Години

Нова тема   Відповісти