Завантажити та скачати торренти українською


Швидкий вогонь / Rapid Fire (1992) 720p 2хUkr/Eng

Нові коментарі

Нова тема   Відповісти
Останній раз роздавалося olkobg (2016-12-06)
Автор Повідомлення
Sando7 
Відео Гуртом - запис з ТБ
Відео Гуртом - запис з ТБ


З нами з: 04.05.09
Востаннє: 06.12.16
Повідомлень: 840

2013-07-31 17:15  
Швидкий вогонь / Rapid Fire (1992) 720p 2хUkr/Eng


Жанр: бойовик, кримінал, драма, трилер
Країна: США



Кінокомпанія: Twentieth Century Fox Film Corporation
Режисер: Двайт Літтл (Dwight H. Little)
Актори: Брендон Лі (Brandon Lee), Паверс Буз (Powers Boothe), Нікк Манкусо (Nick Mancuso), Реймонд Беррі (Raymond J. Barry), Кейт Годж (Kate Hodge) та інші.

Сюжет:
Студент Джейк Ло стає свідком жорстокого вбивства. Не думаючи про те, хто стоїть за спиною вбивць, він погоджується свідчити в суді, і одразу ж люди під виглядом агентів ФБР намагаються прибрати його. Ледве вислизнувши від псевдо-агентів, Джейк виявляється в центрі бурхливої сутички за його голову.
ФБР, наркобарони, друзі, вороги - все змішалося, і невідомо, від кого чекати на смерть, а від кого допомогу. Тут можуть врятувати тільки інстинкти. І інстинкт підказує, що єдиний, кому можна вірити - офіцер поліції Райан. Але хто ж зможе запропонувати Райану - зіграти підсадну качку в його полюванні.


Тривалість: 01:31:16
Якість:
Відео:
кодек:
розмір кадру: 1280 x 694
бітрейт: 5852 кб/с

Аудіо # 1:
мова: українська
переклад: двоголосий закадровий
кодек: 2.0
бітрейт: 192 кб/с

Аудіо # 2:
мова: українська
переклад: багатоголосий закадровий "ТакТребаПродакшн" на замовлення телеканалу
кодек: 2.0
бітрейт: 192 кб/с

Аудіо # 3:
мова: англійська
переклад: оригінал
кодек: 2.0
бітрейт: 192 кб/с

Джерело озвучення:

доріжки взяті з цього релізу https://toloka.to/t17074?spmode=full&dl=names та злегка синхронізовано
MediaInfo
Complete name : C:\Users\sando7\Desktop\Reliz\Rapid Fire (1992)[2xUkr & Eng] 720p [Hurtom].mkv
Format : Matroska
Format version : Version 2
File size : 4.10 GiB
Duration : 1h 31mn
Overall bit rate : 6 426 Kbps
Movie name : Беглый огонь [1992, /720p] || [email protected]
Encoded date : UTC 2013-07-31 14:47:17
Writing application : mkvmerge v5.6.0 ('Kenya Kane') built on May 27 2012 16:44:04
Writing library : libebml v1.2.3 + libmatroska v1.3.0

Video
ID : 1
Format : AVC
Format/Info : Advanced Video Codec
Format profile : [email protected]
Format settings, CABAC : Yes
Format settings, ReFrames : 9 frames
Codec ID : V_MPEG4/ISO/AVC
Duration : 1h 31mn
Bit rate : 5 852 Kbps
Width : 1 280 pixels
Height : 694 pixels
Display aspect ratio : 1.85:1
Frame rate mode : Constant
Frame rate : 25.000 fps
Color space : YUV
Chroma subsampling : 4:2:0
Bit depth : 8 bits
Scan type : Progressive
Bits/(Pixel*Frame) : 0.264
Stream size : 3.65 GiB (89%)
Title : Швидкий вогонь [1992, /720p] || [email protected]
Writing library : core 122 r2184 5c85e0a
Encoding settings : cabac=1 / ref=9 / deblock=1:-2:-2 / analyse=0x3:0x133 / me=umh / subme=10 / psy=1 / psy_rd=1.00:0.20 / mixed_ref=1 / me_range=32 / chroma_me=1 / trellis=2 / 8x8dct=1 / cqm=0 / deadzone=21,11 / fast_pskip=1 / chroma_qp_offset=-3 / threads=6 / sliced_threads=0 / nr=0 / decimate=1 / interlaced=0 / bluray_compat=0 / constrained_intra=0 / bframes=5 / b_pyramid=2 / b_adapt=2 / b_bias=0 / direct=3 / weightb=1 / open_gop=0 / weightp=2 / keyint=250 / keyint_min=25 / scenecut=40 / intra_refresh=0 / rc_lookahead=60 / rc=2pass / mbtree=1 / bitrate=5852 / ratetol=1.0 / qcomp=0.60 / qpmin=0 / qpmax=69 / qpstep=4 / cplxblur=20.0 / qblur=0.5 / ip_ratio=1.40 / aq=1:1.00
Language : English
Default : No
Forced : No

Audio #1
ID : 2
Format : AC-3
Format/Info : Audio Coding 3
Mode extension : CM (complete main)
Format settings, Endianness : Big
Codec ID : A_AC3
Duration : 1h 31mn
Bit rate mode : Constant
Bit rate : 192 Kbps
Channel(s) : 2 channels
Channel positions : Front: L R
Sampling rate : 48.0 KHz
Bit depth : 16 bits
Compression mode : Lossy
Stream size : 125 MiB (3%)
Title : 1+1
Language : Ukrainian
Default : Yes
Forced : Yes

Audio #2
ID : 3
Format : AC-3
Format/Info : Audio Coding 3
Mode extension : CM (complete main)
Format settings, Endianness : Big
Codec ID : A_AC3
Duration : 1h 31mn
Bit rate mode : Constant
Bit rate : 192 Kbps
Channel(s) : 2 channels
Channel positions : Front: L R
Sampling rate : 48.0 KHz
Bit depth : 16 bits
Compression mode : Lossy
Stream size : 125 MiB (3%)
Title : TTP- ICTV
Language : Ukrainian
Default : No
Forced : No

Audio #3
ID : 4
Format : AC-3
Format/Info : Audio Coding 3
Mode extension : CM (complete main)
Format settings, Endianness : Big
Codec ID : A_AC3
Duration : 1h 31mn
Bit rate mode : Constant
Bit rate : 192 Kbps
Channel(s) : 2 channels
Channel positions : Front: L R
Sampling rate : 48.0 KHz
Bit depth : 16 bits
Compression mode : Lossy
Stream size : 125 MiB (3%)
Title : [ [email protected]]
Language : English
Default : No
Forced : No
Скріншоти




Джерело: &


Срібний реліз (на рейтинг впливає 50% завантаженого)
 Трекер:    Зареєстрований   

Завантажити / скачати фільм українською



відео для новачків



 Зареєстрований:   2013-07-31 17:15
 Розмір:   4.1 GB 
 Оцінка фільму:   10/10 (Голосів: 5)
   
Інші релізи
Ваш часовий пояс: GMT + 2 Години

Нова тема   Відповісти