Завантажити та скачати торренти українською


Джі. Ай. Джо: Атака кобри 2 / G.I. Joe: Retaliation (2013) 1080p Ukr/Eng | Sub Ukr/Eng

Нові коментарі

Нова тема   Відповісти
Автор Повідомлення
Anonymous 







2013-07-30 19:54  
Джі. Ай. Джо: Атака кобри 2 / G.I. Joe: Retaliation (2013) 1080p Ukr/Eng | Sub Ukr/Eng



Жанр: фантастика, бойовик, трилер, пригодницький
Країна: США



Кінокомпанія: Paramount Pictures, Metro-Goldwyn-Mayer (MGM), Skydance Productions
Режисер: Джон М. Чу / Jon M. Chu
Актори: Двейн Джонсон / Dwayne Johnson, Едріанн Палікі / Adrianne Palicki, Брюс Вілліс / Bruce Willis, Рей Парк / Ray Park, Лі Бен Гон / Byung-hun Lee, Ченнінґ Тейтум /Channing Tatum, Люк Брейсі / Luke Bracey, Рей Стівенсон / Ray Stevenson та інші

Сюжет:
За наказом Зартана, який прийняв подобу президента США, на захист уряду стає спецпідрозділ "Кобра", а загін "G.I. Joe", що виконував раніше ці обов'язки, ліквідовується. Члени "G.I. Joe", які вижили, об'єднуються, щоб завдати удару у відповідь.


рейтинг MPAA: PG-13 - дітям до 13 років перегляд не бажаний
Вікова категорія: 12+

Тривалість: 01:50:14 [Театральна версія]
Якість: 1080p
Відео:
кодек:
розмір кадру: 1920x800
бітрейт: 8792 кб/с

Аудіо # 1:
мова: українська - LeDoyen Studio
переклад: професійний дубльований
кодек: 5.1
бітрейт: 448 кб/с
Інформація про дубляж

Переклад: Федір Сидорук
Режисер дубляжу: Костянтин Лінартович
Звукорежисери: Андрій Тріфонов і Боб Шевяков
Режисер перезапису: Боб Шевяков
Ролі дублювали: Михайло Жонін, Дмитро Гаврилов, Анастасія Чумаченко, Роман Чорний, Олександр Ігнатуша, Анатолій Пашнін, Борис Георгієвський, Михайло Войчук, Ярослав Чорненький, Катерина Буцька, Олександр Печериця, Андрій Середа, Дмитро Завадський та інші.
Аудіо # 2:
мова: англійська
переклад: оригінал
кодек: 5.1
бітрейт: 640 кб/с

Субтитри:
мова: українська
тип: програмні (м'які)
формат: *.srt

Субтитри:
мова: англійська
тип: програмні (м'які)
формат: *.srt

Збережено оригінальні розділи, як на Blu-ray.
MediaInfo та
[info]: frame I:1496 Avg QP:19.10 size:235172
[info]: frame P:44699 Avg QP:21.95 size: 72297
[info]: frame B:112406 Avg QP:23.93 size: 32719
===================================================================================
General
Unique ID : 182232360183582360305527288728007405265 (0x8918AD09D6F7A0A9A54510394C16EED1)
Complete name : G.I.Joe.Retaliation.2013..1080p.Ukr.Eng.[sub.Ukr.Eng].mkv
Format : Matroska
Format version : Version 4 / Version 2
File size : 7.60 GiB
Duration : 1h 50mn
Overall bit rate : 9 872 Kbps
Movie name : Джі. Ай. Джо: Атака кобри 2 / G.I. Joe: Retaliation / G.I. Joe: Бросок кобры 2 (2013)
Encoded date : UTC 2013-07-30 17:11:17
Writing application : mkvmerge v6.3.0 ('You can't stop me!') built on Jun 28 2013 20:09:41
Writing library : libebml v1.3.0 + libmatroska v1.4.0

Video
ID : 1
Format : AVC
Format/Info : Advanced Video Codec
Format profile : [email protected]
Format settings, CABAC : Yes
Format settings, ReFrames : 5 frames
Codec ID : V_MPEG4/ISO/AVC
Duration : 1h 50mn
Bit rate : 8 792 Kbps
Width : 1 920 pixels
Height : 800 pixels
Display aspect ratio : 2.40:1
Frame rate mode : Constant
Frame rate : 23.976 fps
Color space : YUV
Chroma subsampling : 4:2:0
Bit depth : 8 bits
Scan type : Progressive
Bits/(Pixel*Frame) : 0.239
Stream size : 6.61 GiB (87%)
Title : Джі. Ай. Джо: Атака кобри 2 / G.I. Joe: Retaliation / G.I. Joe: Бросок кобры 2 (2013) [ N1NT3NDO]
Writing library : core 133 r2334 a3ac64b
Encoding settings : cabac=1 / ref=5 / deblock=1:-3:-3 / analyse=0x3:0x133 / me=umh / subme=11 / psy=1 / psy_rd=1.00:0.00 / mixed_ref=1 / me_range=32 / chroma_me=1 / trellis=2 / 8x8dct=1 / cqm=0 / deadzone=21,11 / fast_pskip=0 / chroma_qp_offset=-2 / threads=12 / lookahead_threads=1 / sliced_threads=0 / nr=0 / decimate=0 / interlaced=0 / bluray_compat=0 / constrained_intra=0 / bframes=5 / b_pyramid=2 / b_adapt=2 / b_bias=0 / direct=3 / weightb=1 / open_gop=0 / weightp=2 / keyint=240 / keyint_min=23 / scenecut=40 / intra_refresh=0 / rc=2pass / mbtree=0 / bitrate=8792 / ratetol=1.0 / qcomp=0.60 / qpmin=0 / qpmax=69 / qpstep=4 / cplxblur=20.0 / qblur=0.5 / ip_ratio=1.40 / pb_ratio=1.30 / aq=1:0.70
Language : English
Default : Yes
Forced : No

Audio #1
ID : 2
Format : AC-3
Format/Info : Audio Coding 3
Mode extension : CM (complete main)
Format settings, Endianness : Big
Codec ID : A_AC3
Duration : 1h 50mn
Bit rate mode : Constant
Bit rate : 448 Kbps
Channel(s) : 6 channels
Channel positions : Front: L C R, Side: L R, LFE
Sampling rate : 48.0 KHz
Bit depth : 16 bits
Compression mode : Lossy
Stream size : 353 MiB (5%)
Title : Dub [DVD-LeDoyen Studio] 5.1 448 Kbps
Language : Ukrainian
Default : Yes
Forced : No

Audio #2
ID : 3
Format : AC-3
Format/Info : Audio Coding 3
Mode extension : CM (complete main)
Format settings, Endianness : Big
Codec ID : A_AC3
Duration : 1h 50mn
Bit rate mode : Constant
Bit rate : 640 Kbps
Channel(s) : 6 channels
Channel positions : Front: L C R, Side: L R, LFE
Sampling rate : 48.0 KHz
Bit depth : 16 bits
Compression mode : Lossy
Stream size : 505 MiB (6%)
Title : Original
Language : English
Default : No
Forced : No

Text #1
ID : 4
Format : UTF-8
Codec ID : S_TEXT/UTF8
Codec ID/Info : UTF-8 Plain Text
Title : Ukr full [Blu-ray] [Hurtom]
Language : Ukrainian
Default : No
Forced : No

Text #2
ID : 5
Format : UTF-8
Codec ID : S_TEXT/UTF8
Codec ID/Info : UTF-8 Plain Text
Title : Eng full
Language : English
Default : No
Forced : No

Menu
00:00:00.000 : :Chapter 01
00:06:08.242 : :Chapter 02
00:12:52.313 : :Chapter 03
00:17:35.471 : :Chapter 04
00:25:37.369 : :Chapter 05
00:30:56.187 : :Chapter 06
00:39:00.880 : :Chapter 07
00:42:40.975 : :Chapter 08
00:48:31.241 : :Chapter 09
00:54:02.989 : :Chapter 10
01:01:46.536 : :Chapter 11
01:07:34.675 : :Chapter 12
01:13:56.807 : :Chapter 13
01:17:54.461 : :Chapter 14
01:23:45.979 : :Chapter 15
01:31:12.758 : :Chapter 16
01:41:13.358 : :Chapter 17


Джерела та подяки: ріп відео, оригінальні звук та субтитри - N1NT3NDO (рутор); українська доріжка - з релізу Gelios'а (Гуртом); українські субтитри - Blu-Ray (з серверу доріжок, розпізнавання невідомо чиє).

ЗАЛИШАЙТЕСЬ ЯКОМОГА ДОВШЕ НА РОЗДАЧІ!

СКАЧАВ САМ - ДАЙ СКАЧАТИ ІНШИМ


 Трекер:    Зареєстрований   

Завантажити / скачати фільм українською



відео для новачків



 Зареєстрований:   2013-07-30 19:54
 Розмір:   7.6 GB 
 Оцінка фільму:   5.5/10 (Голосів: 27)
   
Інші релізи
   Джі. Ай. Джо: Атака кобри 2 [Розширена версія] / G.I. Joe: Retaliation [Extended Cut] (2013) 1080p Ukr/Eng | Sub Ukr/Eng Demrandir  1 / 0   8.03 GB   2016-07-25 14:19 
   Джі. Ай. Джо: Атака кобри 2 [Розширена версія] / G.I. Joe: Retaliation [Extended Cut] (2013) [5.1 ] Український дубляж + вставки оригіналу | Sub Ukr Demrandir  0 / 0   394 MB   2016-07-25 13:59 
   G.I. Joe: Атака кобри 2 / G.I. Joe: Retaliation (2013) AVC Ukr/Eng | Sub Ukr/Eng patriot2305  2 / 0   2.91 GB   2013-07-29 13:10 
   G.I. Joe: Атака кобри 2 / G.I. Joe: Retaliation (2013) 720p Ukr/Eng | Sub Ukr/Eng [email protected]  1 / 0   5.65 GB   2013-07-28 21:01 
   G.I. Joe: Атака кобри / G.I. Joe: The Rise of Cobra (2009) / G.I. Joe: Атака кобри 2 / G.I. Joe: Retaliation (2013)  Ukr/Eng | Sub Ukr/Eng AngryBirdsUA  3 / 0   4.37 GB   2013-07-28 17:13 
   Джі. Ай. Джо: Атака кобри 2 / G.I. Joe: Retaliation (2013) Ukr/Eng | Sub Ukr/Eng Gelios  5 / 0   2.18 GB   2013-07-28 11:36 
   G.I. Joe: Атака кобри / G.I. Joe: The Rise of Cobra (2009) / G.I. Joe: Атака кобри 2 / G.I. Joe: Retaliation (2013)  patriot2305  4 / 0   2.94 GB   2013-07-28 01:37 
olyx 
Відео Гуртом - підтримка та поширення
Відео Гуртом - підтримка та поширення


З нами з: 25.01.10
Востаннє: 05.10.16
Повідомлень: 231

2013-07-30 20:22  
А можна весь спимсок версій одразу?
Anonymous 







2013-07-30 20:29  
olyx написано:
А можна весь спимсок версій одразу?

Не зрозумів, яких версій? Тут театральна. Підозрюю, що розширена чи ще яка там українською не озвучуватиметься.

Додано через 4 хвилини 23 секунди:

А якщо маєте на увазі ремукси/блуреї - то я їх не робитиму.

olyx 
Відео Гуртом - підтримка та поширення
Відео Гуртом - підтримка та поширення


З нами з: 25.01.10
Востаннє: 05.10.16
Повідомлень: 231

2013-07-30 21:19  
Я не так виразився, вибачаюсь. Я мав на увазі 720, 1080, блюрей тощо...
InKviZ 
VIP


З нами з: 03.10.10
Востаннє: 03.12.16
Повідомлень: 726

2013-07-30 23:02  
Нарешті! Дякую за реліз...
galushkapanchenko.tatjana 
Новенький


З нами з: 09.09.12
Востаннє: 16.06.14
Повідомлень: 11

2013-09-07 06:46  
вітаю! сжйть, коли ваша ласка, чи можливо буде бачити цей фільм з українським дубляжем в Блюрей якості на цьому сайті ?
Anonymous 







2013-09-07 08:58  
Я не викладатиму. Гляньте тут у розділі HD, хто викладає Блу-реї/ремукси і напишіть їм приватне повідомлення з проханням.
Drool 
VIP


З нами з: 17.04.10
Востаннє: 03.12.16
Повідомлень: 1262

2013-09-07 20:52  
galushkapanchenko.tatjana написано:
вітаю! сжйть, коли ваша ласка, чи можливо буде бачити цей фільм з українським дубляжем в Блюрей якості на цьому сайті ?

Блюрей вийшов без українського дубляжу, тому оригінального блюрею тут не буде. Хіба що хтось зробить Remux з додаванням української доріжки.

Nahalist 
Свій


З нами з: 12.12.13
Востаннє: 02.12.16
Повідомлень: 95

2015-10-25 19:39  
РЕжисерка не планується?
rumumba 
Новенький


З нами з: 24.01.10
Востаннє: 21.11.16
Повідомлень: 16

2015-11-12 23:13  
може закиньте хтось звукову доріжку до http://dorizhky.hurtom.com/ ?????????77
Anonymous 







2015-11-13 01:01  
rumumba, за правилами, туди заливаються лише доріжки, створені у рамках проекту "Відео Гуртом", а тут ліцензія.
Ваш часовий пояс: GMT + 2 Години

Нова тема   Відповісти