Завантажити та скачати торренти українською


Міцний горішок. Гарний день, аби померти [Розширена версія] / A Good Day to Die Hard [Extended Cut] (2013) 720p Ukr/Eng | Sub Ukr/Eng

Нові коментарі

Нова тема   Відповісти
Останній раз роздавалося перрдунець (2016-12-08)
Автор Повідомлення
[email protected] 
Новенький


З нами з: 08.01.13
Востаннє: 05.12.16
Повідомлень: 24

2013-07-30 00:28  
Міцний горішок. Гарний день, аби померти [Розширена версія] / A Good Day to Die Hard [Extended Cut] (2013) 720p Ukr/Eng | Sub Ukr/Eng

Міцний горішок. Гарний день, аби померти [Розширена версія] / A Good Day to Die Hard [Extended Cut] (2013) 720p Ukr/Eng | Sub Ukr/Eng


Жанр: бойовик, екшн
Країна: США



Кінокомпанія: 20th Century Fox
Режисер: Джон Мур
Актори: Брюс Вілліс, Джай Кортні, Себастьян Кох, Юлія Снигирь, Радівойе Буквич, Сергій Колесников, Мері Елізабет Уїнстед, Коул Хаузер, Аморі Ноласко, Роман Лукнар

Сюжет:
Джон Макклейн прибуває в Москву, щоб визволити з в'язниці свого непередбачуваного сина, але холодна голова і залізні м'язи грузнуть в павутині російської дійсності. Справа, в яку влип МакКлейн-молодший, виявляється настільки «небезпечною трясовиною», що батькові і синові, щоб вижити і в черговий раз врятувати світ, доводиться об'єднати свої зусилля, забувши колишні, здавалося б, нездоланні розбіжності...


Тривалість: 01:41:11
Якість: 720p (FREEISLAND)
Відео:
кодек:
розмір кадру: 1280x694
бітрейт: 5289 кб/с

Аудіо # 1:
мова: українська
переклад: професійний дубльований
кодек: 5.1
бітрейт: 448 кб/с

Аудіо # 2:
мова: англійська
переклад: оригінал
кодек: 5.1
бітрейт: 448 кб/с

Джерело озвучення:


Субтитри:
мова: українська
тип: програмні (м'які)
формат: *.srt

Субтитри:
мова: англійська
тип: програмні (м'які)
формат: *.srt
MediaInfo
Format : Matroska
Format version : Version 4 / Version 2
File size : 4.36 GiB
Duration : 1h 41mn
Overall bit rate : 6 170 Kbps
Movie name : A Good Day to Die Hard (2013) 720p от FREEISLAND | Extended Cut | Release by Y.C.
Encoded date : UTC 2013-07-29 22:08:44
Writing application : mkvmerge v6.3.0 ('You can't stop me!') built on Jun 28 2013 20:09:41
Writing library : libebml v1.3.0 + libmatroska v1.4.0

Video
ID : 1
Format : AVC
Format/Info : Advanced Video Codec
Format profile : [email protected]
Format settings, CABAC : Yes
Format settings, ReFrames : 12 frames
Codec ID : V_MPEG4/ISO/AVC
Duration : 1h 41mn
Bit rate : 5 289 Kbps
Width : 1 280 pixels
Height : 694 pixels
Display aspect ratio : 1.85:1
Frame rate mode : Constant
Frame rate : 23.976 fps
Color space : YUV
Chroma subsampling : 4:2:0
Bit depth : 8 bits
Scan type : Progressive
Bits/(Pixel*Frame) : 0.248
Stream size : 3.64 GiB (83%)
Writing library : core 133 r2334kMod a3ac64b
Encoding settings : cabac=1 / ref=12 / deblock=1:-3:-3 / analyse=0x3:0x113 / me=esa / subme=11 / psy=1 / fade_compensate=0.00 / psy_rd=0.90:0.05 / mixed_ref=1 / me_range=32 / chroma_me=1 / trellis=2 / 8x8dct=1 / cqm=0 / deadzone=21,11 / fast_pskip=0 / chroma_qp_offset=-3 / threads=6 / lookahead_threads=1 / sliced_threads=0 / nr=0 / decimate=1 / interlaced=0 / bluray_compat=0 / constrained_intra=0 / bframes=12 / b_pyramid=2 / b_adapt=2 / b_bias=0 / direct=3 / weightb=1 / open_gop=0 / weightp=2 / keyint=250 / keyint_min=23 / scenecut=40 / intra_refresh=0 / rc_lookahead=40 / rc=2pass / mbtree=0 / bitrate=5289 / ratetol=1.0 / qcomp=0.75 / qpmin=0 / qpmax=69 / qpstep=4 / cplxblur=20.0 / qblur=0.5 / vbv_maxrate=50000 / vbv_bufsize=62500 / nal_hrd=none / ip_ratio=1.40 / pb_ratio=1.30 / aq=3:0.80
Default : Yes
Forced : No
Color primaries : BT.709
Transfer characteristics : BT.709
Matrix coefficients : BT.709

Audio #1
ID : 2
Format : AC-3
Format/Info : Audio Coding 3
Mode extension : CM (complete main)
Format settings, Endianness : Big
Codec ID : A_AC3
Duration : 1h 41mn
Bit rate mode : Constant
Bit rate : 448 Kbps
Channel(s) : 6 channels
Channel positions : Front: L C R, Side: L R, LFE
Sampling rate : 48.0 KHz
Bit depth : 16 bits
Compression mode : Lossy
Stream size : 324 MiB (7%)
Title : DUB @ 5.1 | 448 kbps
Language : Ukrainian
Default : Yes
Forced : No

Audio #2
ID : 3
Format : AC-3
Format/Info : Audio Coding 3
Mode extension : CM (complete main)
Format settings, Endianness : Big
Codec ID : A_AC3
Duration : 1h 41mn
Bit rate mode : Constant
Bit rate : 448 Kbps
Channel(s) : 6 channels
Channel positions : Front: L C R, Side: L R, LFE
Sampling rate : 48.0 KHz
Bit depth : 16 bits
Compression mode : Lossy
Stream size : 324 MiB (7%)
Title : Original @ 5.1 | 448 kbps
Language : English
Default : No
Forced : No

Text #1
ID : 4
Format : UTF-8
Codec ID : S_TEXT/UTF8
Codec ID/Info : UTF-8 Plain Text
Title : Full @ SRT
Language : Ukrainian
Default : No
Forced : No

Text #2
ID : 5
Format : UTF-8
Codec ID : S_TEXT/UTF8
Codec ID/Info : UTF-8 Plain Text
Title : Full @ SRT
Language : English
Default : No
Forced : No
Скріншоти

Джерело: &
Особиста оцінка: 10 - без зайвих вагань рекомендую всім!


 Трекер:    Зареєстрований   

Завантажити / скачати фільм українською



відео для новачків



 Зареєстрований:   2013-07-30 00:28
 Розмір:   4.36 GB 
 Оцінка фільму:   7.3/10 (Голосів: 18)
   
ratbol 
Модератор HD


З нами з: 03.02.09
Востаннє: 07.12.16
Повідомлень: 1088

2013-07-30 21:24  
Скріншти повинні бути у форматі png.
Ua.bos_01 
VIP


З нами з: 22.06.15
Востаннє: 06.12.16
Повідомлень: 1291

2015-08-07 12:11  
Люди добрі! Дайте швидкості! Станьте на роздачу. 
SHEVA1991 
Поважний учасник


З нами з: 29.11.12
Востаннє: 03.12.16
Повідомлень: 200

2016-01-07 21:16  
4та яастина як би її не лаяли всеж краща за цю. могли б зняти і краще.
Ua.bos_01 
VIP


З нами з: 22.06.15
Востаннє: 06.12.16
Повідомлень: 1291

2016-01-07 23:54  
Спочатку, даний фільм не планувався, як доповнення серії "Міцного горішка". Однак все-таки творці вирішили приплести йому цю назву, і перекрутити його на такий лад. Що популярності фільму явно не додало. Особиста думка - краще б не паскудили серію "Міцного горішка" цим фільмом, і взагалі б його не створювали.
SHEVA1991 
Поважний учасник


З нами з: 29.11.12
Востаннє: 03.12.16
Повідомлень: 200

2016-01-08 09:55  
Цілком згоден!
SHEVA1991 
Поважний учасник


З нами з: 29.11.12
Востаннє: 03.12.16
Повідомлень: 200

2016-01-08 18:46  
До речі, в титрах в кінці фільму є актриса яка грає доньку з 4ї частини. тут нею зовсім не пахне. шо за фігня?
Ua.bos_01 
VIP


З нами з: 22.06.15
Востаннє: 06.12.16
Повідомлень: 1291

2016-01-08 20:58  
SHEVA1991 Тобто з четвертої частини? Це і є четверта частина! Чи я щось не зрозумів?
SHEVA1991 
Поважний учасник


З нами з: 29.11.12
Востаннє: 03.12.16
Повідомлень: 200

2016-01-08 21:16  
четверта то там МакЛейн з хакером бігають по Вашингтону
Ua.bos_01 
VIP


З нами з: 22.06.15
Востаннє: 06.12.16
Повідомлень: 1291

2016-01-08 22:47  
SHEVA1991 Точно! Перепрошую. Помилився.

Цікаво, а й справді вона вказана в титрах?

SHEVA1991 
Поважний учасник


З нами з: 29.11.12
Востаннє: 03.12.16
Повідомлень: 200

2016-01-09 09:07  
Перевірте. я з дружиною вчора дивився. і що так такого розширеного так і не помітив. шкода що так споганили франшизу.
Ua.bos_01 
VIP


З нами з: 22.06.15
Востаннє: 06.12.16
Повідомлень: 1291

2016-01-09 11:17  
SHEVA1991 Добре, перегляну, бо самому дуже цікаво.
SHEVA1991 
Поважний учасник


З нами з: 29.11.12
Востаннє: 03.12.16
Повідомлень: 200

2016-01-09 13:23  
А ви ще не бачили цю частину?
Ua.bos_01 
VIP


З нами з: 22.06.15
Востаннє: 06.12.16
Повідомлень: 1291

2016-01-09 19:24  
SHEVA1991 Фільм я бачив, просто титри до другосортних фільмів я зазвичай не переглядаю.
SHEVA1991 
Поважний учасник


З нами з: 29.11.12
Востаннє: 03.12.16
Повідомлень: 200

2016-01-09 20:36  
Це правильно! ну я випадково натрапив ось і міркую - де ж та Люсі?!)
Ua.bos_01 
VIP


З нами з: 22.06.15
Востаннє: 06.12.16
Повідомлень: 1291

2016-01-09 21:34  
SHEVA1991 Мені теж цікаво!..
Collettore 
Новенький


З нами з: 17.05.15
Востаннє: 08.12.16
Повідомлень: 3

2016-02-05 13:47  
Дякую хлопці!
Ua.bos_01 
VIP


З нами з: 22.06.15
Востаннє: 06.12.16
Повідомлень: 1291

2016-02-05 14:48  
Collettore
Будь ласка! =)

Ваш часовий пояс: GMT + 2 Години

Нова тема   Відповісти