Завантажити та скачати торренти українською


G.I. Joe: Атака кобри 2 / G.I. Joe: Retaliation (2013) 720p Ukr/Eng | Sub Ukr/Eng

Нові коментарі

Нова тема   Відповісти
Автор Повідомлення
[email protected] 
Новенький


З нами з: 08.01.13
Востаннє: 05.12.16
Повідомлень: 24

2013-07-28 21:01  
G.I. Joe: Атака кобри 2 / G.I. Joe: Retaliation (2013) 720p Ukr/Eng | Sub Ukr/Eng

G.I. Joe: Атака кобри 2 / G.I. Joe: Retaliation (2013) 720p Ukr/Eng | Sub Ukr/Eng


Жанр: бойовик, екшн
Країна: США



Кінокомпанія: Paramount Pictures, Metro-Goldwyn-Mayer (MGM), Skydance Productions
Режисер: Джон Чу
Актори: Двейн "Скеля" Джонсон, Едріанн Палікі, Брюс Вілліс, Рей Парк, Лі Бен Гон, Д. Дж. Котрона, Джонатан Прайс, Елоді Юнґ, Ченнінґ Тейтум, Люк Брейсі, Рей Стівенсон, Волтон Ґоґґінс

Сюжет:
Після того, як за наказом Зартана, що прийняв вигляд президента США, більшість членів «Джі-Ай Джо» убили, ті що залишилися об'єднуються, щоб завдати удару у відповідь.


Тривалість: 01:50:15
Якість: 720p
Відео:
кодек:
розмір кадру: 1280x534
бітрейт: 6109 кб/с

Аудіо # 1:
мова: українська
переклад: професійний дубльований
кодек: 5.1
бітрейт: 448 кб/с

Аудіо # 2:
мова: англійська
переклад: оригінал
кодек: 5.1
бітрейт: 640 кб/с

Джерело озвучення:


Субтитри:
мова: українська
тип: програмні (м'які)
формат: *.srt

Субтитри:
мова: англійська
тип: програмні (м'які)
формат: *.srt
MediaInfo
Format : Matroska
Format version : Version 4 / Version 2
File size : 5.65 GiB
Duration : 1h 50mn
Overall bit rate : 7 343 Kbps
Movie name : G.I. Joe: Retaliation (2013) 720p | Teatrical Cut | Release by Y.C.
Encoded date : UTC 2013-07-28 18:30:49
Writing application : mkvmerge v6.3.0 ('You can't stop me!') built on Jun 28 2013 20:09:41
Writing library : libebml v1.3.0 + libmatroska v1.4.0

Video
ID : 1
Format : AVC
Format/Info : Advanced Video Codec
Format profile : [email protected]
Format settings, CABAC : Yes
Format settings, ReFrames : 12 frames
Codec ID : V_MPEG4/ISO/AVC
Duration : 1h 50mn
Bit rate : 6 109 Kbps
Width : 1 280 pixels
Height : 534 pixels
Display aspect ratio : 2.40:1
Frame rate mode : Constant
Frame rate : 23.976 fps
Color space : YUV
Chroma subsampling : 4:2:0
Bit depth : 8 bits
Scan type : Progressive
Bits/(Pixel*Frame) : 0.373
Stream size : 4.70 GiB (83%)
Writing library : core 132 r2323+704+51 d571b1c tMod [[email protected]:2:0 X86_64]
Encoding settings : cabac=1 / ref=12 / deblock=1:-3:-3 / analyse=0x3:0x113 / me=umh / subme=10 / psy=1 / fade_compensate=0.00 / psy_rd=1.02:0.00 / mixed_ref=1 / me_range=32 / chroma_me=1 / trellis=2 / 8x8dct=1 / cqm=0 / deadzone=21,11 / fast_pskip=0 / chroma_qp_offset=-2 / threads=12 / lookahead_threads=1 / sliced_threads=0 / nr=0 / decimate=0 / interlaced=0 / bluray_compat=0 / constrained_intra=0 / fgo=0 / bframes=5 / b_pyramid=2 / b_adapt=2 / b_bias=0 / direct=3 / weightb=1 / open_gop=0 / weightp=2 / keyint=240 / keyint_min=24 / scenecut=40 / intra_refresh=0 / rc_lookahead=120 / rc=crf / mbtree=1 / crf=17.6000 / qcomp=0.70 / qpmin=0 / qpmax=69 / qpstep=4 / ip_ratio=1.20 / aq=4:0.80 / aq-sensitivity=10.00 / aq-factor=1.00:1.00:1.00 / aq2=0 / aq3=0
Default : Yes
Forced : No

Audio #1
ID : 2
Format : AC-3
Format/Info : Audio Coding 3
Mode extension : CM (complete main)
Format settings, Endianness : Big
Codec ID : A_AC3
Duration : 1h 50mn
Bit rate mode : Constant
Bit rate : 448 Kbps
Channel(s) : 6 channels
Channel positions : Front: L C R, Side: L R, LFE
Sampling rate : 48.0 KHz
Bit depth : 16 bits
Compression mode : Lossy
Stream size : 353 MiB (6%)
Title : DUB @ 5.1 | 448 kbps
Language : Ukrainian
Default : Yes
Forced : No

Audio #2
ID : 3
Format : AC-3
Format/Info : Audio Coding 3
Mode extension : CM (complete main)
Format settings, Endianness : Big
Codec ID : A_AC3
Duration : 1h 50mn
Bit rate mode : Constant
Bit rate : 640 Kbps
Channel(s) : 6 channels
Channel positions : Front: L C R, Side: L R, LFE
Sampling rate : 48.0 KHz
Bit depth : 16 bits
Compression mode : Lossy
Stream size : 505 MiB (9%)
Title : Original @ 5.1 | 640 kbps
Language : English
Default : No
Forced : No

Text #1
ID : 4
Format : UTF-8
Codec ID : S_TEXT/UTF8
Codec ID/Info : UTF-8 Plain Text
Title : Full @ SRT
Language : Ukrainian
Default : No
Forced : No

Text #2
ID : 5
Format : UTF-8
Codec ID : S_TEXT/UTF8
Codec ID/Info : UTF-8 Plain Text
Title : Full @ SRT
Language : English
Default : No
Forced : No
Скріншоти

Джерело: &
Особиста оцінка: 10 - без зайвих вагань рекомендую всім!


 Трекер:    Зареєстрований   

Завантажити / скачати фільм українською



відео для новачків



 Зареєстрований:   2013-07-28 21:01
 Розмір:   5.65 GB 
 Оцінка фільму:   8.2/10 (Голосів: 29)
   
ratbol 
Модератор HD


З нами з: 03.02.09
Востаннє: 07.12.16
Повідомлень: 1088

2013-07-30 21:13  
Скріншоти повинні бути у форматі png.
[email protected] 
Новенький


З нами з: 08.01.13
Востаннє: 05.12.16
Повідомлень: 24

2013-07-31 11:25  
ratbol
ок

PUMAUA 
Свій


З нами з: 07.11.09
Востаннє: 08.12.16
Повідомлень: 56

2013-07-31 13:56  
Фільм так собі.
Для фанатів "Рембо" та "Нестримні".

oleh19 
Частий відвідувач


З нами з: 22.06.08
Востаннє: 06.12.16
Повідомлень: 31

2013-08-01 14:07  
А можете викласти окремо звукову доріжку,укр?Хочу до 3D "доліпити".
rumumba 
Новенький


З нами з: 24.01.10
Востаннє: 21.11.16
Повідомлень: 16

2015-11-15 13:49  
http://www.ex.ua/view/10424593

пряме посилання на доріжку
http://www.ex.ua/get/207526048

витягнув Авідемуксом з цього релізу.
Може добавите до розділу доріжки??

сам фільм дивився без пива і портвейну - тому якось не зайшов, 5/10

Ваш часовий пояс: GMT + 2 Години

Нова тема   Відповісти