Завантажити та скачати торренти українською


Міс Конгеніальність. Дилогія / Miss Congeniality. Dilogy (2000, 2005) 1080p 2xUkr/Eng | Sub Eng

Нові коментарі

Нова тема   Відповісти
Автор Повідомлення
Anonymous 







2013-07-28 15:10  
Міс Конгеніальність. Дилогія / Miss Congeniality. Dilogy (2000, 2005) 1080p 2xUkr/Eng | Sub Eng

Міс Конгеніальність / Miss Congeniality (2000) 1080p 3xUkr/Eng | Sub Eng

Міс Конгеніальність / Miss Congeniality (2000) 1080p 3xUkr/Eng | Sub Eng



Альтернативний український постер



Жанр: комедія, бойовик, кримінальний, детектив
Країна: США, Австралія



Кінокомпанія: Castle Rock Entertainment, Village Roadshow Pictures, NPV Entertainment
Режисер: Дональд Петрі /Donald Petrie
Актори: Сандра Буллок / Sandra Bullock, Майкл Кейн / Michael Caine, Бенджамін Бретт / Benjamin Bratt, Вілльям Шетнер / William Shatner, Кендіс Берген / Candice Bergen, Ерні Хадсон / Ernie Hudson та інші

Сюжет:
Агента ФБР, Грейсі Харт, направляють на конкурс краси «Міс Америка», де має з'явитися серійний убивця на прізвисько «Громадянин». Грейс терміново повинна стати красунею, щоб зсередини, як учасниця конкурсу викрити злочинця, і в цьому їй допомагає досвідчений консультант Віктор. На наших очах відбувається метаморфоза: бридке каченя перетворюється на леді. Грейс потрапляє у смішні становища, але звідусіль виходить з честю, навіть з дефіле в купальниках ...


рейтинг MPAA: PG-13 - дітям до 13 років перегляд не бажаний
Вікова категорія: 12+

Тривалість: 01:50:15
Якість: 1080p
Відео:
кодек:
розмір кадру: 1920х1080
бітрейт: 9042 кб/с

Аудіо # 1: запис з та
мова: українська - студія "Пілот" на замовлення телеканалу "Інтер"
переклад: професійний дубльований
Ролі дублювали: Дмитро Завадський (Бенджамін Бретт / Ерік Метьюз), Юрій Гребельник (Майкл Кейн / Віктор Меллінг), Ольга Радчук (Кендіс Берген / Кеті Морнінгсайд) та інші.
кодек: 5.1
бітрейт: 448 кб/с

Аудіо # 2:
мова: українська - Так Треба Продакшн
переклад: багатоголосий закадровий
кодек: 5.1
бітрейт: 448 кб/с

Аудіо # 3:
мова: українська - Студія 1+1
переклад: двоголосий закадровий
Ролі озвучили: Олександр Завальський і Олена Узлюк
кодек: 5.1
бітрейт: 448 кб/с

Аудіо # 4:
мова: англійська
переклад: оригінал
кодек: 5.1
бітрейт: 640 кб/с

Субтитри # 1:
мова: англійська (повні)
тип: програмні (м'які)
формат: *.srt

Субтитри # 2:
мова: англійська (SDH)
тип: програмні (м'які)
формат: *.srt

Збережено оригінальні розділи, як на Blu-ray.
MediaInfo та
[info]: frame I:1267 Avg QP:18.23 size:149742
[info]: frame P:49927 Avg QP:20.93 size: 74352
[info]: frame B:107405 Avg QP:22.87 size: 33204
===============================================================================================
General
Unique ID : 229176299020655672867260665582603388835 (0xAC69BFEB35CDCBC0899F15597AEAC7A3)
Complete name : Miss.Congeniality.2000..1080p.3xUkr.Eng.[sub.Eng].mkv
Format : Matroska
Format version : Version 4 / Version 2
File size : 8.49 GiB
Duration : 1h 50mn
Overall bit rate : 11.0 Mbps
Movie name : Міс Конгеніальність / Miss Congeniality / Мисс Конгениальность (2000)
Encoded date : UTC 2013-07-28 09:16:55
Writing application : mkvmerge v6.3.0 ('You can't stop me!') built on Jun 28 2013 20:09:41
Writing library : libebml v1.3.0 + libmatroska v1.4.0

Video
ID : 1
Format : AVC
Format/Info : Advanced Video Codec
Format profile : [email protected]
Format settings, CABAC : Yes
Format settings, ReFrames : 4 frames
Codec ID : V_MPEG4/ISO/AVC
Duration : 1h 50mn
Bit rate : 9 042 Kbps
Width : 1 920 pixels
Height : 1 080 pixels
Display aspect ratio : 16:9
Frame rate mode : Constant
Frame rate : 23.976 fps
Color space : YUV
Chroma subsampling : 4:2:0
Bit depth : 8 bits
Scan type : Progressive
Bits/(Pixel*Frame) : 0.182
Stream size : 6.79 GiB (80%)
Title : Міс Конгеніальність / Miss Congeniality / Мисс Конгениальность (2000) [K.A.F.]
Writing library : core 135 r2345 f0c1c53
Encoding settings : cabac=1 / ref=4 / deblock=1:0:0 / analyse=0x3:0x133 / me=tesa / subme=11 / psy=1 / psy_rd=1.00:0.10 / mixed_ref=1 / me_range=32 / chroma_me=1 / trellis=2 / 8x8dct=1 / cqm=0 / deadzone=21,11 / fast_pskip=0 / chroma_qp_offset=-3 / threads=12 / lookahead_threads=1 / sliced_threads=0 / nr=0 / decimate=0 / interlaced=0 / bluray_compat=0 / constrained_intra=0 / bframes=6 / b_pyramid=2 / b_adapt=2 / b_bias=0 / direct=3 / weightb=1 / open_gop=0 / weightp=2 / keyint=240 / keyint_min=23 / scenecut=40 / intra_refresh=0 / rc=2pass / mbtree=0 / bitrate=9042 / ratetol=1.0 / qcomp=0.60 / qpmin=0 / qpmax=69 / qpstep=4 / cplxblur=20.0 / qblur=0.5 / ip_ratio=1.40 / pb_ratio=1.30 / aq=1:1.00
Language : English
Default : Yes
Forced : No

Audio #1
ID : 2
Format : AC-3
Format/Info : Audio Coding 3
Mode extension : CM (complete main)
Format settings, Endianness : Big
Codec ID : A_AC3
Duration : 1h 50mn
Bit rate mode : Constant
Bit rate : 448 Kbps
Channel(s) : 6 channels
Channel positions : Front: L C R, Side: L R, LFE
Sampling rate : 48.0 KHz
Bit depth : 16 bits
Compression mode : Lossy
Stream size : 353 MiB (4%)
Title : Dub [Pilot for Inter; Novij, K1] 5.1 448 Kbps [Hurtom-_oles]
Language : Ukrainian
Default : Yes
Forced : No

Audio #2
ID : 3
Format : AC-3
Format/Info : Audio Coding 3
Mode extension : CM (complete main)
Format settings, Endianness : Big
Codec ID : A_AC3
Duration : 1h 50mn
Bit rate mode : Constant
Bit rate : 448 Kbps
Channel(s) : 6 channels
Channel positions : Front: L C R, Side: L R, LFE
Sampling rate : 48.0 KHz
Bit depth : 16 bits
Compression mode : Lossy
Stream size : 353 MiB (4%)
Title : MVO [TakTrebaProduction-ICTV] 5.1 448 Kbps [Hurtom-_oles]
Language : Ukrainian
Default : No
Forced : No

Audio #3
ID : 4
Format : AC-3
Format/Info : Audio Coding 3
Mode extension : CM (complete main)
Format settings, Endianness : Big
Codec ID : A_AC3
Duration : 1h 50mn
Bit rate mode : Constant
Bit rate : 448 Kbps
Channel(s) : 6 channels
Channel positions : Front: L C R, Side: L R, LFE
Sampling rate : 48.0 KHz
Bit depth : 16 bits
Compression mode : Lossy
Stream size : 353 MiB (4%)
Title : DVO [1+1] 5.1 448 Kbps [Hurtom-_oles]
Language : Ukrainian
Default : No
Forced : No

Audio #4
ID : 5
Format : AC-3
Format/Info : Audio Coding 3
Mode extension : CM (complete main)
Format settings, Endianness : Big
Codec ID : A_AC3
Duration : 1h 50mn
Bit rate mode : Constant
Bit rate : 640 Kbps
Channel(s) : 6 channels
Channel positions : Front: L C R, Side: L R, LFE
Sampling rate : 48.0 KHz
Bit depth : 16 bits
Compression mode : Lossy
Stream size : 505 MiB (6%)
Title : Original 5.1ch 640 kbps
Language : English
Default : No
Forced : No

Text #1
ID : 6
Format : UTF-8
Codec ID : S_TEXT/UTF8
Codec ID/Info : UTF-8 Plain Text
Title : Eng full
Language : English
Default : No
Forced : No

Text #2
ID : 7
Format : UTF-8
Codec ID : S_TEXT/UTF8
Codec ID/Info : UTF-8 Plain Text
Title : Eng SDH
Language : English
Default : No
Forced : No

Menu
00:00:00.000 : en:
00:05:00.000 : en:
00:10:00.000 : en:
00:15:00.000 : en:
00:20:00.000 : en:
00:25:00.000 : en:
00:30:00.000 : en:
00:35:00.000 : en:
00:40:00.000 : en:
00:45:00.000 : en:
00:50:00.000 : en:
00:55:00.000 : en:
01:00:00.000 : en:
01:05:00.000 : en:
01:10:00.000 : en:
01:15:00.000 : en:
01:20:00.000 : en:
01:25:00.000 : en:
01:30:00.000 : en:
01:35:00.000 : en:
01:40:00.000 : en:
01:45:00.000 : en:
01:50:00.000 : en:
Міс Конгеніальність 2: Озброєна і легендарна / Miss Congeniality 2: Armed & Fabulous (2005) 1080p 2xUkr/Eng | Sub Eng

Міс Конгеніальність 2: Озброєна і легендарна / Miss Congeniality 2: Armed & Fabulous (2005) 1080p 2xUkr/Eng | Sub Eng



Жанр: комедія, бойовик, кримінальний, детектив
Країна: США, Австралія



Кінокомпанія: Castle Rock Entertainment, Village Roadshow Pictures, Fortis Films
Режисер: Джон Пасквін / John Pasquin
Актори: Сандра Буллок / Sandra Bullock, Хізер Бернс / Heather Burns, Ріджина Кінг / Regina King, Енріке Марчіано /Enrique Murciano, Вілльям Шатнер / William Shatner та інші

Сюжет:
Події починають розгортатися після того, як агент ФБР Грейсі Харт під виглядом однієї з конкурсанток успішно справляється з важливим завданням на конкурсі краси "Міс Америка". Ставши знаменитістю ЗМІ, Грейсі стала проводити більше часу в салонах краси, ніж на стрільбищі, беручи участь в різних ток-шоу і рекламуючи свою книгу. Коли її друзів, переможницю конкурсу Шеріл і ведучого Стена викрадають в Лас-Вегасі, Грейсі прикладає всіх зусиль аби їх знайти, вступивши в конфлікт із своїм керівництвом, яке не бажає ризикувати своїм "талісманом" і побоюється, що вона провалить операцію...


рейтинг MPAA: PG-13 - дітям до 13 років перегляд не бажаний
Вікова категорія: 12+

Тривалість: 01:55:20
Якість: 1080p
Відео:
кодек:
розмір кадру: 1920х798
бітрейт: 8332 кб/с

Аудіо # 1: запис з та
мова: українська
переклад: професійний дубльований
кодек: 5.1
бітрейт: 448 кб/с

Аудіо # 2:
мова: українська - Так Треба Продакшн
переклад: багатоголосий закадровий
Ролі озвучили:
кодек: 5.1
бітрейт: 448 кб/с

Аудіо # 3:
мова: англійська
переклад: оригінал
кодек: 5.1
бітрейт: 640 кб/с

Субтитри # 1:
мова: англійська (повні)
тип: програмні (м'які)
формат: *.srt

Збережено оригінальні розділи, як на Blu-ray.
MediaInfo та
[info]: frame I:1651 Avg QP:15.59 size:153323
[info]: frame P:52109 Avg QP:17.90 size: 69404
[info]: frame B:112175 Avg QP:19.44 size: 29729
===============================================================================================
General
Unique ID : 248166899542637083214075426616953363720 (0xBAB334D04E3839DC838E13486E955D08)
Complete name : Miss.Congeniality.2.Armed.&.Fabulous.2005..1080p.2xUkr.Eng.[sub.Eng].mkv
Format : Matroska
Format version : Version 4 / Version 2
File size : 7.95 GiB
Duration : 1h 55mn
Overall bit rate : 9 866 Kbps
Movie name : Міс Конгеніальність 2: Озброєна і легендарна / Miss Congeniality 2: Armed & Fabulous (2005)
Encoded date : UTC 2013-07-28 10:57:37
Writing application : mkvmerge v6.3.0 ('You can't stop me!') built on Jun 28 2013 20:09:41
Writing library : libebml v1.3.0 + libmatroska v1.4.0

Video
ID : 1
Format : AVC
Format/Info : Advanced Video Codec
Format profile : [email protected]
Format settings, CABAC : Yes
Format settings, ReFrames : 5 frames
Codec ID : V_MPEG4/ISO/AVC
Duration : 1h 55mn
Bit rate : 8 332 Kbps
Width : 1 920 pixels
Height : 798 pixels
Display aspect ratio : 2.40:1
Frame rate mode : Constant
Frame rate : 23.976 fps
Color space : YUV
Chroma subsampling : 4:2:0
Bit depth : 8 bits
Scan type : Progressive
Bits/(Pixel*Frame) : 0.227
Stream size : 6.55 GiB (82%)
Title : Міс Конгеніальність 2: Озброєна і легендарна / Miss Congeniality 2: Armed & Fabulous (2005) [K.A.F.]
Writing library : core 135 r2345 f0c1c53
Encoding settings : cabac=1 / ref=5 / deblock=1:-3:-3 / analyse=0x3:0x133 / me=tesa / subme=11 / psy=1 / psy_rd=1.00:0.10 / mixed_ref=1 / me_range=32 / chroma_me=1 / trellis=2 / 8x8dct=1 / cqm=0 / deadzone=21,11 / fast_pskip=0 / chroma_qp_offset=-3 / threads=12 / lookahead_threads=1 / sliced_threads=0 / nr=0 / decimate=0 / interlaced=0 / bluray_compat=0 / constrained_intra=0 / bframes=3 / b_pyramid=2 / b_adapt=2 / b_bias=0 / direct=3 / weightb=1 / open_gop=0 / weightp=2 / keyint=240 / keyint_min=23 / scenecut=40 / intra_refresh=0 / rc=2pass / mbtree=0 / bitrate=8332 / ratetol=1.0 / qcomp=0.60 / qpmin=0 / qpmax=69 / qpstep=4 / cplxblur=20.0 / qblur=0.5 / ip_ratio=1.40 / pb_ratio=1.30 / aq=1:1.00
Language : English
Default : Yes
Forced : No

Audio #1
ID : 2
Format : AC-3
Format/Info : Audio Coding 3
Mode extension : CM (complete main)
Format settings, Endianness : Big
Codec ID : A_AC3
Duration : 1h 55mn
Bit rate mode : Constant
Bit rate : 448 Kbps
Channel(s) : 6 channels
Channel positions : Front: L C R, Side: L R, LFE
Sampling rate : 48.0 KHz
Bit depth : 16 bits
Compression mode : Lossy
Stream size : 370 MiB (5%)
Title : Dub [Novij] 5.1 448 Kbps [Hurtom-_oles]
Language : Ukrainian
Default : Yes
Forced : No

Audio #2
ID : 3
Format : AC-3
Format/Info : Audio Coding 3
Mode extension : CM (complete main)
Format settings, Endianness : Big
Codec ID : A_AC3
Duration : 1h 55mn
Bit rate mode : Constant
Bit rate : 448 Kbps
Channel(s) : 6 channels
Channel positions : Front: L C R, Side: L R, LFE
Sampling rate : 48.0 KHz
Bit depth : 16 bits
Compression mode : Lossy
Stream size : 370 MiB (5%)
Title : MVO [TakTrebaProduction-ICTV] 5.1 448 Kbps [Hurtom-_oles]
Language : Ukrainian
Default : No
Forced : No

Audio #3
ID : 4
Format : AC-3
Format/Info : Audio Coding 3
Mode extension : CM (complete main)
Format settings, Endianness : Big
Codec ID : A_AC3
Duration : 1h 55mn
Bit rate mode : Constant
Bit rate : 640 Kbps
Channel(s) : 6 channels
Channel positions : Front: L C R, Side: L R, LFE
Sampling rate : 48.0 KHz
Bit depth : 16 bits
Compression mode : Lossy
Stream size : 528 MiB (6%)
Title : Original 5.1 640 Kbps
Language : English
Default : No
Forced : No

Text
ID : 5
Format : UTF-8
Codec ID : S_TEXT/UTF8
Codec ID/Info : UTF-8 Plain Text
Title : Eng full
Language : English
Default : No
Forced : No

Menu
00:00:00.000 : en:
00:05:00.000 : en:
00:10:00.000 : en:
00:15:00.000 : en:
00:20:00.000 : en:
00:25:00.000 : en:
00:30:00.000 : en:
00:35:00.000 : en:
00:40:00.000 : en:
00:45:00.000 : en:
00:50:00.000 : en:
00:55:00.000 : en:
01:00:00.000 : en:
01:05:00.000 : en:
01:10:00.000 : en:
01:15:00.000 : en:
01:20:00.000 : en:
01:25:00.000 : en:
01:30:00.000 : en:
01:35:00.000 : en:
01:40:00.000 : en:
01:45:00.000 : en:
01:50:00.000 : en:
01:55:00.000 : en:
Джерела та подяки: ріп відео, оригінальні звук та субтитри - K.A.F. (рутор); українські доріжки - _oles - зведення, xSlim, ua2004, SweetN, dvorsky, robotron005, Merdiff - запис з ТБ; українські постери - hellforces (всі - Гуртом).

Особиста оцінка: 7 - мені сподобалося

ЗАЛИШАЙТЕСЬ ЯКОМОГА ДОВШЕ НА РОЗДАЧІ!

СКАЧАВ САМ - ДАЙ СКАЧАТИ ІНШИМ


Срібний реліз (на рейтинг впливає 50% завантаженого)
 Трекер:    Зареєстрований   

Завантажити / скачати фільм українською



відео для новачків



 Зареєстрований:   2013-07-28 15:10
 Розмір:   16.43 GB 
 Оцінка фільму:   4.8/10 (Голосів: 19)
   
mykolas 
Новенький


З нами з: 10.09.10
Востаннє: 07.12.16
Повідомлень: 1

2013-08-08 14:39  
Проблеми про перегляді першого фільму. У кращому разі зупиняється через хвилину від початку. Пробував у Лінуксі й Вінді на VLC та інших програвачах. Другий фільм іде чудово.
Anonymous 







2013-08-08 15:29  
У мене все чудово з обома частинами. Перед оформленням релізу перевіряв mkvalidator"ом. На всякий випадок:
- спробуй на іншому компі/пристрої,
- перехешуй файли в торрент-клієнті,
- перевір вінт на беди.

Anonymous 







2016-11-25 09:34  
Відновив роздачу.
Ваш часовий пояс: GMT + 2 Години

Нова тема   Відповісти