Завантажити та скачати торренти українською


Водний світ / Waterworld (1995) 1080p Ukr/Eng | Sub Eng

Нові коментарі

Нова тема   Відповісти
Автор Повідомлення
Anonymous 







2013-07-27 23:34  
Водний світ / Waterworld (1995) 1080p Ukr/Eng | Sub Eng



Альтернативні українські постери





Жанр: фантастика, бойовик, пригодницький, постапокаліптичний
Країна: США



Кінокомпанія: Universal Pictures, Gordon Company, Davis Entertainment
Режисер: Кевін Рейнолдс / Kevin Reynolds, Кевін Костнер / Kevin Costner
Актори: Кевін Костнер / Kevin Costner, Джин Тріплгорн / Jeanne Tripplehorn, Тіна Маджоріно / Tina Majorino, Денніс Гоппер / Dennis Hopper, Майкл Джітер / Michael Jeter, Джек Блeк / Jack Black, Кім Коутс/ Kim Coates та інші.

Сюжет:
У далекому майбутньому льодовики розтанули і весь суходіл занурився під воду. Залишилось тільки декілька плавучих місць, жителі яких ніколи не бачили землю. Єдиною і абсолютною цінністю на безкрайніх океанічних просторах стає придатний для вирощування їжі грунт. Герой Кевіна Костнера заробляє на життя пошуками землі, дізнається про те, що легенда про існування загадкового суходолу цілком реальна. Але карта, що вказує шлях до заповітної мрії, виявляється об'єктом домагань морських піратів ...


рейтинг MPAA: PG-13 - дітям до 13 років перегляд не бажаний
Вікова категорія: 12+

Тривалість: 02:15:11
Якість: 1080p
Відео:
кодек:
розмір кадру: 1920x1040
бітрейт: 10550 кб/с

Аудіо # 1:
мова: українська
переклад: багатоголосий закадровий
Ролі озвучили: Олег Лепенець (Кевін Костнер / моряк), Олесь Гімбаржевський, Андрій Самінін та Ніна Касторф
кодек: 2.0
бітрейт: 192 кб/с

Аудіо # 2:
мова: англійська
переклад: оригінал
кодек: 5.1
бітрейт: 640 кб/с

Субтитри # 1:
мова: англійська
тип: програмні (м'які) SDH
формат: *.srt

Збережено оригінальні розділи, як на Blu-ray.
MediaInfo та
[info]: frame I:1305 Avg QP:19.90 size:140581
[info]: frame P:44116 Avg QP:21.74 size: 83289
[info]: frame B:149055 Avg QP:23.42 size: 45809
==================================================================================
General
Unique ID : 251331628423199870462201246633273892862 (0xBD14B5FE899C68F18CFBBE0851C09FFE)
Complete name : Waterworld.1995..1080p.Ukr.Eng.[sub.Eng].mkv
Format : Matroska
Format version : Version 4 / Version 2
File size : 10.7 GiB
Duration : 2h 15mn
Overall bit rate : 11.4 Mbps
Movie name : Водний світ / Водяний світ / Waterworld / Водный мир (1995)
Encoded date : UTC 2013-07-27 16:13:35
Writing application : mkvmerge v6.3.0 ('You can't stop me!') built on Jun 28 2013 20:09:41
Writing library : libebml v1.3.0 + libmatroska v1.4.0

Video
ID : 1
Format : AVC
Format/Info : Advanced Video Codec
Format profile : [email protected]
Format settings, CABAC : Yes
Format settings, ReFrames : 4 frames
Codec ID : V_MPEG4/ISO/AVC
Duration : 2h 15mn
Bit rate : 10.6 Mbps
Width : 1 920 pixels
Height : 1 040 pixels
Display aspect ratio : 1.85:1
Frame rate mode : Constant
Frame rate : 23.976 fps
Color space : YUV
Chroma subsampling : 4:2:0
Bit depth : 8 bits
Scan type : Progressive
Bits/(Pixel*Frame) : 0.220
Stream size : 9.74 GiB (91%)
Title : Водний світ / Водяний світ / Waterworld / Водный мир (1995) [ЮраAVC]
Writing library : core 128 r2216M 198a7ea
Encoding settings : cabac=1 / ref=4 / deblock=1:-2:-1 / analyse=0x3:0x133 / me=umh / subme=10 / psy=1 / psy_rd=1.00:0.00 / mixed_ref=1 / me_range=32 / chroma_me=1 / trellis=2 / 8x8dct=1 / cqm=0 / deadzone=21,11 / fast_pskip=0 / chroma_qp_offset=-2 / threads=4 / lookahead_threads=1 / sliced_threads=0 / nr=0 / decimate=0 / interlaced=0 / bluray_compat=0 / constrained_intra=0 / bframes=9 / b_pyramid=2 / b_adapt=2 / b_bias=0 / direct=3 / weightb=1 / open_gop=0 / weightp=2 / keyint=240 / keyint_min=23 / scenecut=40 / intra_refresh=0 / rc=2pass / mbtree=0 / bitrate=10550 / ratetol=1.0 / qcomp=0.60 / qpmin=10 / qpmax=69 / qpstep=4 / cplxblur=20.0 / qblur=0.5 / ip_ratio=1.40 / pb_ratio=1.30 / aq=1:1.00
Language : English
Default : Yes
Forced : No

Audio #1
ID : 2
Format : AC-3
Format/Info : Audio Coding 3
Mode extension : CM (complete main)
Format settings, Endianness : Big
Codec ID : A_AC3
Duration : 2h 15mn
Bit rate mode : Constant
Bit rate : 192 Kbps
Channel(s) : 2 channels
Channel positions : Front: L R
Sampling rate : 48.0 KHz
Bit depth : 16 bits
Compression mode : Lossy
Stream size : 186 MiB (2%)
Title : MVO [TRK Ukraina] 2.0 192 Kbps [Hurtom-greg_7, robotron005]
Language : Ukrainian
Default : Yes
Forced : No

Audio #2
ID : 3
Format : AC-3
Format/Info : Audio Coding 3
Mode extension : CM (complete main)
Format settings, Endianness : Big
Codec ID : A_AC3
Duration : 2h 15mn
Bit rate mode : Constant
Bit rate : 640 Kbps
Channel(s) : 6 channels
Channel positions : Front: L C R, Side: L R, LFE
Sampling rate : 48.0 KHz
Bit depth : 16 bits
Compression mode : Lossy
Stream size : 619 MiB (6%)
Title : Original 5.1 640 Kbps
Language : English
Default : No
Forced : No

Text
ID : 4
Format : UTF-8
Codec ID : S_TEXT/UTF8
Codec ID/Info : UTF-8 Plain Text
Title : Eng full SDH
Language : English
Default : No
Forced : No

Menu
00:00:00.000 : en:Main Title: The New World
00:06:29.011 : en:Smokers!
00:09:56.051 : en:A Stranger in Town
00:25:33.864 : en:Dead Out of the Sun
00:53:20.739 : en:Smokers in the Sky
00:59:36.947 : en:Rough Trade
01:15:04.291 : en:The Barter Outpost
01:21:22.627 : en:Down to Dryland
01:25:18.238 : en:Going Under
01:39:30.255 : en:The Coming of the Marine
01:43:48.595 : en:No Mercy
01:49:08.041 : en:Smoke on the Water
01:55:18.536 : en:The Death of "the Deez"
01:57:06.394 : en:The Deacon's Last Shot
01:59:40.131 : en:Home
02:06:31.542 : en:End Titles


Джерела та подяки: ріп відео, оригінальний звук - ЮраAVC (рутор); українська доріжка - greg_7, robotron005, Disturbed - запис з ТБ; оригінальні субтитри - HQCLUB; українські постери - drakon87 (всі - Гуртом).

Особиста оцінка: 10 - рекомендую всім

ЗАЛИШАЙТЕСЬ ЯКОМОГА ДОВШЕ НА РОЗДАЧІ!

СКАЧАВ САМ - ДАЙ СКАЧАТИ ІНШИМ


Срібний реліз (на рейтинг впливає 50% завантаженого)
 Трекер:    Зареєстрований   

Завантажити / скачати фільм українською



відео для новачків



 Зареєстрований:   2013-07-27 23:34
 Розмір:   10.74 GB 
 Оцінка фільму:   5.3/10 (Голосів: 20)
   
Інші релізи
   Водний світ / Waterworld (1995) [MP4, 640x] apvAltisimo  0 / 0   902 MB   2016-03-09 14:21 
   Водний світ / Waterworld (1995) 720p Ukr/Eng | Sub Eng kino.  0 / 0   8.14 GB   2013-12-08 17:15 
   Водний світ / Водяний світ / Waterworld (1995) Ukr/Eng robotron005  6 / 0   2.37 GB   2013-07-21 12:19 
   Водний Світ / Waterworld (1995) prodig  5 / 0   1.94 GB   2009-11-18 17:34 
ilitbr 
VIP


З нами з: 25.05.09
Востаннє: 06.12.16
Повідомлень: 427

2013-07-28 07:31  
Одина із улюблених стрічок дитинства! Дякую за реліз!
oleggpakt 
Новенький


З нами з: 13.09.14
Востаннє: 14.08.16
Повідомлень: 1

2015-04-23 21:47  
Найкращий фільм свого жанру!!!

Додано через 30 секунд:

Слава Україні !

Ваш часовий пояс: GMT + 2 Години

Нова тема   Відповісти