Завантажити та скачати торренти українською


VA - DJ O'Skrypka: Етно-диско вечорниці (2013) [FLAC] | Folk

Нові коментарі

Нова тема   Відповісти
Автор Повідомлення
Kucherman 
Частий відвідувач


З нами з: 03.06.08
Востаннє: 04.11.16
Повідомлень: 46

2013-07-24 13:04  
VA - DJ O'Skrypka: Етно-диско вечорниці (2013) [FLAC] | Folk

VA - DJ O'Skrypka: Етно-диско вечорниці (2013) [FLAC] | Folk


Стиль: Folk, Electro
Країна, місто: Україна, Київ
Сайти: Офіційний сайт
Видавець: Країна мрій
Пісні:
    1. Музика дика (Воплі Відоплясова)
    2. Там на горі (Стелсі)
    3. Гречаники (Чоботи З Бугая)
    4. Ночы (Палац)
    5. Весна RMX (Воплі Відоплясова)
    6. На поточку (Сонцекльош)
    7. Підманула (Воплі Відоплясова)
    8. Картошка (Фольклорний ансамбль "Божичі")
    9. Чорна гора (Вася Club, Василь Гонтарський)
    10. Калина (Мандри)
    11. Не ламай калину (Дуліби)
    12. Пісенька RMX (Стелсі, Воплі Відоплясова)
    13. Таді шугай таді (Фолькнери)
    14. Темна нічка, темна (Очеретяний Кіт)
    15. День народження RMX (Воплі Відоплясова)
    16. Ой, та хто горя не знає (Олег Скрипка)
    17. Колись так не було /як тепер/ (Аби МС)
log
Exact Audio Copy V1.0 beta 3 from 29. August 2011

Отчёт EAC об извлечении, выполненном 24. июля 2013, 11:30

DJ O`Skrypka / Етно-диско вечорниці

Дисковод: ASUS DRW-24B3ST Adapter: 5 ID: 0

Режим чтения : Достоверность
Использование точного потока : Да
Отключение кэша аудио : Да
Использование указателей C2 : Нет

Коррекция смещения при чтении : 6
Способность читать области Lead-in и Lead-out : Нет
Заполнение пропущенных сэмплов тишиной : Да
Удаление блоков с тишиной в начале и конце : Нет
При вычислениях CRC использовались нулевые сэмплы : Да
Интерфейс : Встроенный Win32-интерфейс для Win NT/2000
Обработка зазоров : Добавлено к предыдущему треку

Выходной формат : Пользовательский кодировщик
Выбранный битрейт : 128 kBit/s
Качество : Высокий
Добавление ID3-тега : Нет
Утилита сжатия : C:\Program Files (x86)\Exact Audio Copy\Flac\flac.exe
Дополнительные параметры : -V -8 -T "Genre=%genre%" -T "Artist=%artist%" -T "Title=%title%" -T "Album=%albumtitle%" -T "Date=%year%" -T "Tracknumber=%tracknr%" -T "Comment=%comment%" %source%

TOC извлечённого CD

Трек | Старт | Длительность | Начальный сектор | Конечный сектор
---------------------------------------------------------------------
1 | 0:00.00 | 3:16.03 | 0 | 14702
2 | 3:16.03 | 3:55.66 | 14703 | 32393
3 | 7:11.69 | 3:27.65 | 32394 | 47983
4 | 10:39.59 | 4:03.60 | 47984 | 66268
5 | 14:43.44 | 5:46.26 | 66269 | 92244
6 | 20:29.70 | 2:09.19 | 92245 | 101938
7 | 22:39.14 | 4:06.13 | 101939 | 120401
8 | 26:45.27 | 3:15.19 | 120402 | 135045
9 | 30:00.46 | 2:58.48 | 135046 | 148443
10 | 32:59.19 | 3:35.10 | 148444 | 164578
11 | 36:34.29 | 3:49.06 | 164579 | 181759
12 | 40:23.35 | 2:59.74 | 181760 | 195258
13 | 43:23.34 | 3:07.63 | 195259 | 209346
14 | 46:31.22 | 2:39.56 | 209347 | 221327
15 | 49:11.03 | 4:44.54 | 221328 | 242681
16 | 53:55.57 | 3:04.07 | 242682 | 256488
17 | 56:59.64 | 4:28.60 | 256489 | 276648

Трек 1

Имя файла D:\Етно-диско вечорниці\01 DJ O`Skrypka Track01 .wav

Длина предзазора 0:00:02.00

Пиковый уровень 87.5 %
Скорость извлечения 3.3 X
Качество трека 100.0 %
CRC теста CB184B0E
CRC копии CB184B0E
Копирование... OK

Трек 2

Имя файла D:\Етно-диско вечорниці\02 DJ O`Skrypka Track02 .wav

Пиковый уровень 96.6 %
Скорость извлечения 3.8 X
Качество трека 100.0 %
CRC теста 855490EE
CRC копии 855490EE
Копирование... OK

Трек 3

Имя файла D:\Етно-диско вечорниці\03 DJ O`Skrypka Track03 .wav

Пиковый уровень 98.6 %
Скорость извлечения 4.0 X
Качество трека 100.0 %
CRC теста 5C431208
CRC копии 5C431208
Копирование... OK

Трек 4

Имя файла D:\Етно-диско вечорниці\04 DJ O`Skrypka Track04 .wav

Пиковый уровень 99.3 %
Скорость извлечения 4.4 X
Качество трека 100.0 %
CRC теста 9B3D342B
CRC копии 9B3D342B
Копирование... OK

Трек 5

Имя файла D:\Етно-диско вечорниці\05 DJ O`Skrypka Track05 .wav

Пиковый уровень 100.0 %
Скорость извлечения 5.0 X
Качество трека 100.0 %
CRC теста B746DE06
CRC копии B746DE06
Копирование... OK

Трек 6

Имя файла D:\Етно-диско вечорниці\06 DJ O`Skrypka Track06 .wav

Пиковый уровень 100.0 %
Скорость извлечения 4.5 X
Качество трека 100.0 %
CRC теста BA1A6774
CRC копии BA1A6774
Копирование... OK

Трек 7

Имя файла D:\Етно-диско вечорниці\07 DJ O`Skrypka Track07 .wav

Пиковый уровень 97.8 %
Скорость извлечения 5.2 X
Качество трека 100.0 %
CRC теста A582B4A0
CRC копии A582B4A0
Копирование... OK

Трек 8

Имя файла D:\Етно-диско вечорниці\08 DJ O`Skrypka Track08 .wav

Пиковый уровень 99.1 %
Скорость извлечения 5.3 X
Качество трека 100.0 %
CRC теста 64ADBA48
CRC копии 64ADBA48
Копирование... OK

Трек 9

Имя файла D:\Етно-диско вечорниці\09 DJ O`Skrypka Track09 .wav

Пиковый уровень 99.2 %
Скорость извлечения 4.0 X
Качество трека 99.9 %
CRC теста 4AC7CFE9
CRC копии 4AC7CFE9
Копирование... OK

Трек 10

Имя файла D:\Етно-диско вечорниці\10 DJ O`Skrypka Track10 .wav

Пиковый уровень 97.4 %
Скорость извлечения 4.5 X
Качество трека 99.9 %
CRC теста 9C501AB1
CRC копии 9C501AB1
Копирование... OK

Трек 11

Имя файла D:\Етно-диско вечорниці\11 DJ O`Skrypka Track11 .wav

Пиковый уровень 94.5 %
Скорость извлечения 4.7 X
Качество трека 99.9 %
CRC теста F3307407
CRC копии F3307407
Копирование... OK

Трек 12

Имя файла D:\Етно-диско вечорниці\12 DJ O`Skrypka Track12 .wav

Пиковый уровень 100.0 %
Скорость извлечения 6.0 X
Качество трека 100.0 %
CRC теста DF6F23FF
CRC копии DF6F23FF
Копирование... OK

Трек 13

Имя файла D:\Етно-диско вечорниці\13 DJ O`Skrypka Track13 .wav

Пиковый уровень 100.0 %
Скорость извлечения 6.2 X
Качество трека 100.0 %
CRC теста 0ACCDC03
CRC копии 0ACCDC03
Копирование... OK

Трек 14

Имя файла D:\Етно-диско вечорниці\14 DJ O`Skrypka Track14 .wav

Пиковый уровень 100.0 %
Скорость извлечения 6.1 X
Качество трека 100.0 %
CRC теста 3FEE449B
CRC копии 3FEE449B
Копирование... OK

Трек 15

Имя файла D:\Етно-диско вечорниці\15 DJ O`Skrypka Track15 .wav

Пиковый уровень 97.7 %
Скорость извлечения 7.0 X
Качество трека 100.0 %
CRC теста 150B60FD
CRC копии 150B60FD
Копирование... OK

Трек 16

Имя файла D:\Етно-диско вечорниці\16 DJ O`Skrypka Track16 .wav

Пиковый уровень 100.0 %
Скорость извлечения 6.6 X
Качество трека 100.0 %
CRC теста C96B25F2
CRC копии C96B25F2
Копирование... OK

Трек 17

Имя файла D:\Етно-диско вечорниці\17 DJ O`Skrypka Track17 .wav

Пиковый уровень 100.0 %
Скорость извлечения 7.2 X
Качество трека 100.0 %
CRC теста ECA382E7
CRC копии ECA382E7
Копирование... OK

Ошибок не произошло

Конец отчёта

==== Контрольная сумма отчёта 3624047D19EC059A31CA6F268EBD70427764690DDA819F69E69459E3F7B3F0F1 ====
Тривалість: 01:01:29
Мова: українська, білоруська (4)
Аудіо-кодек: FLAC
Бітрейт: 873-1028 кб/с
Джерело: власний ріп
Додаткова інформація:
Альбом-компіляція від Олега Скрипки (DJ O’Skrypka) у прогресивному стилі «етно-диско». Добірка хітів славнозвісних «Українських Вечорниць», складена з танцювальних треків у виконанні Олега Скрипки, гуртів «Воплі Відоплясова», «Вася Клаб», «Мандри», «Стелсі», «Сонцекльош» та інших провідних сучасних українських музикантів. Дивовижний мікс із старовинних традицій, народної музики та сучасної дискотеки.
Колекційне видання, обмежений наклад, digipack.


Якщо Ви справді бажаєте підтримати українське - після прослуховування, якщо музика вам сподобалась, придбайте ліцензійний диск. Підтримаймо вітчизняних виконавців!


Срібний реліз (на рейтинг впливає 50% завантаженого)
 Трекер:    Зареєстрований   

Завантажити / скачати українську музику



відео для новачків



 Зареєстрований:   2013-07-24 13:04
 Розмір:   429 MB 
 Оцінка музики:   9/10 (Голосів: 12)
   
DjRomcio 
Поважний учасник


З нами з: 15.06.09
Востаннє: 08.12.16
Повідомлень: 176

2013-07-24 19:29  
А можна в mp3???
Kucherman 
Частий відвідувач


З нами з: 03.06.08
Востаннє: 04.11.16
Повідомлень: 46

2013-07-24 19:39  
DjRomcio, та можна, але якось ліньки цим займатись. Навмисне робив у лосі, бо мп3 вважаю моветоном.
ssTAss 
Модератор музики


З нами з: 05.07.08
Востаннє: 08.12.16
Повідомлень: 10947

2013-07-25 22:40  
Kucherman
на Толоці існує правило створювати релізи виключно через майстер ("Додати торрент", а не "Нова тема")
6c6c6 написано:
III. УВАГА! Створення релізу виключно з використанням функції „Додати торрент“.

http://toloka.to/t223
на перший раз поправлю сам.. надалі попрошу дотримуватись правил, бо буду просто видаляти реліз

Додано через 14 хвилин 15 секунд:

DjRomcio написано:
А можна в mp3???

Kucherman написано:
мп3 вважаю моветоном.

ага Rolleyes (2) , а диск записаний майже повністю з мр3
fooCDtect
fooCDtect - foobar2000 + auCDtect, baralgin.

auCDtect: CD records authenticity detector, version 0.8.2
Copyright (c) 2004 Oleg Berngardt. All rights reserved.
Copyright (c) 2004 Alexander Djourik. All rights reserved.

mode: 0

===========================================
Track: 01 - ВВ - Музика дика
Quality: MPEG 95%
===========================================
Track: 02 - Стелсі - Там на горі
Quality: MPEG 95%
===========================================
Track: 03 - Чоботи з бугая - Гречаники
Quality: MPEG 95%
===========================================
Track: 04 - Палац - Ночы
Quality: MPEG 95%
===========================================
Track: 05 - ВВ - Весна RMX
Quality: MPEG 95%
===========================================
Track: 06 - Сонцекльош - На поточку
Quality: MPEG 95%
===========================================
Track: 07 - ВВ - Підманула
Quality: MPEG 95%
===========================================
Track: 08 - Божичі - Картошка
Quality: MPEG 95%
===========================================
Track: 09 - Вася клаб - Чорна гора
Quality: MPEG 95%
===========================================
Track: 10 - Мандри - Калина
Quality: MPEG 95%
===========================================
Track: 11 - Дуліби - Не ламай калину
Quality: MPEG 95%
===========================================
Track: 12 - ВВ feat. Стелсі - Пісенька RMX
Quality: MPEG 90%
===========================================
Track: 13 - Фолькнери - Таді шугай таді
Quality: MPEG 95%
===========================================
Track: 14 - Очеретяний кіт - Темна нічка, темна
Quality: MPEG 95%
===========================================
Track: 15 - ВВ - День народження RMX
Quality: CDDA 99%
===========================================
Track: 16 - Олег Скрипка - Ой, та хто горя не знає
Quality: CDDA 100%
===========================================
Track: 17 - Аби МС - Колись так не було (як тепер)
Quality: CDDA 100%
===========================================

lpershyi 
Попереджень: 2
Попереджень: 2 


З нами з: 04.01.11
Востаннє: 30.11.16
Повідомлень: 2622

2013-07-26 00:28  
ssTAss написано:
диск записаний майже повністю з мр3
а навіщо тоді срібло?
musicfan 
Модератор музики


З нами з: 27.01.09
Востаннє: 05.12.16
Повідомлень: 893

2013-07-26 09:04  
Kucherman написано:
4. Ночы (Палац)

Палац - музичний гурт з Білорусі. Відповідно і трек білоруською

Kucherman 
Частий відвідувач


З нами з: 03.06.08
Востаннє: 04.11.16
Повідомлень: 46

2013-07-26 12:08  
ssTAss написано:
на Толоці існує правило створювати релізи виключно через майстер ("Додати торрент", а не "Нова тема")

Вибачаюсь, не знав.
ssTAss написано:
на перший раз поправлю сам.. надалі попрошу дотримуватись правил, бо буду просто видаляти реліз

Дякую!
ssTAss написано:
ага Rolleyes (2) , а диск записаний майже повністю з мр3

Не перевіряв. Дякую за інформацію. Скрипка виявився редискою, що втюкує таку якість під виглядом CD. Я особисто, завантажую завжди в лослесі, якщо нема тоді мр3.
musicfan написано:
Палац - музичний гурт з Білорусі. Відповідно і трек білоруською

А я що не так написав? Назви треків це копіпаст з офсайту.

ssTAss 
Модератор музики


З нами з: 05.07.08
Востаннє: 08.12.16
Повідомлень: 10947

2013-07-26 21:56  
Kucherman написано:
А я що не так написав? Назви треків це копіпаст з офсайту.

та назви правильно написали, просто в рядку "Мова" треба було ще вказати - білоруська (4)

Додано через 2 хвилини 52 секунди:

lpershyi написано:
а навіщо тоді срібло?

якщо не бачите різниці між апконвертом і "так видав лейбл", то чим можу допомогти?
реліз отримав срібло цілком заслужено

Kucherman 
Частий відвідувач


З нами з: 03.06.08
Востаннє: 04.11.16
Повідомлень: 46

2013-07-26 22:04  
ssTAss , а... ну тепер все зрозуміло, дякую!
Ваш часовий пояс: GMT + 2 Години

Нова тема   Відповісти