Завантажити та скачати торренти українською


Битва драконів / Bridge of Dragons (1999) 720p 2xUkr/Eng

Нові коментарі

Нова тема   Відповісти
Автор Повідомлення
bodia87 
Відео Гуртом - фільмокрай
Відео Гуртом - фільмокрай


З нами з: 24.01.09
Востаннє: 03.12.16
Повідомлень: 468

2013-07-24 08:46  
Битва драконів / Bridge of Dragons (1999) 720p 2xUkr/Eng

Битва драконів / Bridge of Dragons (1999) 720p 2xUkr/Eng


Жанр: екшн, романтичний, фантастика, трилер
Країна: США



Кінокомпанія: Martien Holdings A.V.V., Nu Image Films
Режисер: Айзек Флорентайн (Isaac Florentine)
Актори: Дольф Лундгрен (Dolph Lundgren), Кері-Хіроюкі Тагава (Cary-Hiroyuki Tagawa), Валері Чоу (Valerie Chow), Гері Хадсон (Gary Hudson)

Сюжет:
Там, де майбутнє й минуле нероздільні, де кровожерливий тиран рветься до влади, а народ мириться із гнобленням, найдеться герой, здатний захистити юну принцесу від підступних домагань лиходія і відновити справедливість у колись мирному й спокійному королівстві.

Лише йому під силу очолити відважні загони повстанців у вирішальній битві із озброєними до зубів арміями ворога й зруйнувати грандіозні плани по узурпації трону й установленню безроздільного панування.


Тривалість: 01:27:54
Якість:
Відео:
кодек:
розмір кадру: 1088 х 720
бітрейт: 4 998 кб/с

Аудіо # 1:
мова: українська
переклад: двоголосий закадровий
кодек: 5.1
бітрейт: 384 кб/с

Аудіо # 2:
мова: українська
переклад: двоголосий закадровий
кодек: 5.1
бітрейт: 384 кб/с

Аудіо # 3:
мова: англійська
переклад: оригінал
кодек: 5.1
бітрейт: 384 кб/с
MediaInfo
General
Unique ID : 214836996695635219046266631271480596114 (0xA1A019BB033452AEB6301E7948749692)
Complete name : F:\Release\Bridge of Dragons (1999) 720p [2xukr.eng] Hurtom.mkv
Format : Matroska
Format version : Version 4 / Version 2
File size : 3.78 GiB
Duration : 1h 27mn
Overall bit rate : 6 150 Kbps
Encoded date : UTC 2013-07-24 06:19:02
Writing application : mkvmerge v6.2.0 ('Promised Land') built on Apr 28 2013 12:22:01
Writing library : libebml v1.3.0 + libmatroska v1.4.0

Video
ID : 1
Format : AVC
Format/Info : Advanced Video Codec
Format profile : [email protected]
Format settings, CABAC : Yes
Format settings, ReFrames : 5 frames
Codec ID : V_MPEG4/ISO/AVC
Duration : 1h 27mn
Bit rate : 4 998 Kbps
Width : 1 088 pixels
Height : 720 pixels
Display aspect ratio : 3:2
Frame rate mode : Constant
Frame rate : 25.000 fps
Color space : YUV
Chroma subsampling : 4:2:0
Bit depth : 8 bits
Scan type : Progressive
Bits/(Pixel*Frame) : 0.255
Stream size : 2.99 GiB (79%)
Title : Fight of the Dragon (1999) 720p
Writing library : core 115 r1995 c1e60b9
Encoding settings : cabac=1 / ref=5 / deblock=1:-3:-3 / analyse=0x3:0x133 / me=umh / subme=7 / psy=1 / psy_rd=1.00:0.15 / mixed_ref=1 / me_range=24 / chroma_me=1 / trellis=2 / 8x8dct=1 / cqm=0 / deadzone=21,11 / fast_pskip=1 / chroma_qp_offset=-3 / threads=6 / sliced_threads=0 / nr=0 / decimate=1 / interlaced=0 / bluray_compat=0 / constrained_intra=0 / bframes=5 / b_pyramid=2 / b_adapt=2 / b_bias=0 / direct=3 / weightb=1 / open_gop=0 / weightp=2 / keyint=250 / keyint_min=25 / scenecut=40 / intra_refresh=0 / rc_lookahead=30 / rc=2pass / mbtree=1 / bitrate=4998 / ratetol=1.0 / qcomp=0.60 / qpmin=0 / qpmax=69 / qpstep=4 / cplxblur=20.0 / qblur=0.5 / ip_ratio=1.40 / aq=1:1.00
Language : German
Default : Yes
Forced : No

Audio #1
ID : 2
Format : AC-3
Format/Info : Audio Coding 3
Mode extension : CM (complete main)
Format settings, Endianness : Big
Codec ID : A_AC3
Duration : 1h 27mn
Bit rate mode : Constant
Bit rate : 384 Kbps
Channel(s) : 6 channels
Channel positions : Front: L C R, Side: L R, LFE
Sampling rate : 48.0 KHz
Bit depth : 16 bits
Compression mode : Lossy
Stream size : 241 MiB (6%)
Title : [TTP for ICTV]
Language : Ukrainian
Default : Yes
Forced : No

Audio #2
ID : 3
Format : AC-3
Format/Info : Audio Coding 3
Mode extension : CM (complete main)
Format settings, Endianness : Big
Codec ID : A_AC3
Duration : 1h 27mn
Bit rate mode : Constant
Bit rate : 384 Kbps
Channel(s) : 6 channels
Channel positions : Front: L C R, Side: L R, LFE
Sampling rate : 48.0 KHz
Bit depth : 16 bits
Compression mode : Lossy
Stream size : 241 MiB (6%)
Title : [2+2]
Language : Ukrainian
Default : No
Forced : No

Audio #3
ID : 4
Format : AC-3
Format/Info : Audio Coding 3
Mode extension : CM (complete main)
Format settings, Endianness : Big
Codec ID : A_AC3
Duration : 1h 27mn
Bit rate mode : Constant
Bit rate : 384 Kbps
Channel(s) : 6 channels
Channel positions : Front: L C R, Side: L R, LFE
Sampling rate : 48.0 KHz
Bit depth : 16 bits
Compression mode : Lossy
Stream size : 241 MiB (6%)
Language : English
Default : No
Forced : No
Скріншоти











Всі звукові доріжки взяв з релізу urij546724, за що йому щиро вдячний.

Реліз підготовлений на прохання Фюрер.

Джерело: &


Срібний реліз (на рейтинг впливає 50% завантаженого)
 Трекер:    Зареєстрований   

Завантажити / скачати фільм українською



відео для новачків



 Зареєстрований:   2013-07-24 08:46
 Розмір:   3.78 GB 
 Оцінка фільму:   10/10 (Голосів: 4)
   
Інші релізи
   Битва драконів / Bridge of Dragons (1999) 2xUkr/Eng urij546724  2 / 0   2.01 GB   2011-09-13 21:13 
Ваш часовий пояс: GMT + 2 Години

Нова тема   Відповісти