Завантажити та скачати торренти українською


Зоряний шлях / Star Trek (2009) 720p 2xUkr/Eng | Sub Ukr/Eng

Нові коментарі

Нова тема   Відповісти
Автор Повідомлення
aalleexx85 
Відео Гуртом - фільмокрай
Відео Гуртом - фільмокрай


З нами з: 27.07.10
Востаннє: 10.12.16
Повідомлень: 1139

2013-07-23 21:45  
Зоряний шлях / Star Trek (2009) 720p 2xUkr/Eng | Sub Ukr/Eng

Зоряний шлях / Star Trek (2009) 720p 2xUkr/Eng | Sub Ukr/Eng


"The Future Begins"


Жанр: фантастика, екшн, пригодницький
Країна: USA

Top 250 #225

Кінокомпанія: Paramount Pictures, Spyglass Entertainment, Bad Robot
Режисер: Джей Джей Абрамс
Актори: Кріс Пайн, Захарі Квінто, Леонард Німой, Ерік Бана, Брюс Грінвуд, Карл Урбан, Зої Салдана, Саймон Пегг, Джон Чо, Антон Єлчін, Вайнона Райдер та інші

Сюжет:
Коли Нерон з планети Ромул приходить з майбутнього, щоб помститися Федерації, конкуренти Кірк і Спок вимушені об'єднатися, щоб не дати йому зруйнувати все, що є в них дорогого. Під час цієї надзвичайної подорожі, повної ефектних бойовищ, гумору та космічних погроз, новоспечені члени команди військового корабля «Ентерпрайз» сміливо зустрінуться віч-на-віч з неймовірними небезпеками.


Тривалість: 02:06:50
Якість:
Відео:
кодек:
розмір кадру: 1280x536
бітрейт: 3494 кб/с

Аудіо # 1:
мова: українська
переклад: професійний дубльований
кодек: 5.1
бітрейт: 448 кб/с

Аудіо # 2:
мова: українська
переклад: багатоголосий закадровий («Так Треба Продакшн»)
кодек: 2.0
бітрейт: 192 кб/с
запис і синхронізація - BILko

Аудіо # 3:
мова: англійська
переклад: оригінал
кодек: 5.1
бітрейт: 448 кб/с

Субтитри 1:
мова: українська
тип: програмні (м'які)
формат: *.srt

Субтитри 2:
мова: англійська
тип: програмні (м'які)
формат: *.srt
MediaInfo
General
Unique ID : 209120219175460072481585535080913387590 (0x9D5316D6615C777AB497590689434046)
Complete name : G:\Star Trek (2009) [2xukr,eng ] 720p [Hurtom].mkv
Format : Matroska
Format version : Version 2
File size : 4.14 GiB
Duration : 2h 6mn
Overall bit rate : 4 675 Kbps
Movie name : Star Trek (2009) [2xukr,eng ] 720p [Hurtom]
Encoded date : UTC 2013-07-23 14:22:06
Writing application : mkvmerge v4.9.1 ('Ich will') зібрано Jul 11 2011 23:53:15
Writing library : libebml v1.2.1 + libmatroska v1.1.1

Video
ID : 1
Format : AVC
Format/Info : Advanced Video Codec
Format profile : [email protected]
Format settings, CABAC : Yes
Format settings, ReFrames : 11 frames
Codec ID : V_MPEG4/ISO/AVC
Duration : 2h 6mn
Bit rate : 3 494 Kbps
Width : 1 280 pixels
Height : 536 pixels
Display aspect ratio : 2.40:1
Frame rate : 23.976 fps
Color space : YUV
Chroma subsampling : 4:2:0
Bit depth : 8 bits
Scan type : Progressive
Bits/(Pixel*Frame) : 0.212
Stream size : 3.10 GiB (75%)
Title : Star Trek (2009) [2xukr,eng ] 720p [Hurtom]
Writing library : core 107 r1766 f9f0035
Encoding settings : cabac=1 / ref=11 / deblock=1:-3:-1 / analyse=0x3:0x133 / me=umh / subme=10 / psy=1 / psy_rd=0.90:0.06 / mixed_ref=1 / me_range=32 / chroma_me=1 / trellis=2 / 8x8dct=1 / cqm=0 / deadzone=21,11 / fast_pskip=1 / chroma_qp_offset=-3 / threads=6 / sliced_threads=0 / nr=0 / decimate=1 / interlaced=0 / constrained_intra=0 / bframes=10 / b_pyramid=2 / b_adapt=2 / b_bias=0 / direct=3 / weightb=1 / open_gop=0 / weightp=2 / keyint=250 / keyint_min=23 / scenecut=40 / intra_refresh=0 / rc_lookahead=120 / rc=crf / mbtree=1 / crf=19.5 / qcomp=0.70 / qpmin=10 / qpmax=51 / qpstep=4 / ip_ratio=1.40 / aq=1:0.95
Language : English
Default : Yes
Forced : No

Audio #1
ID : 2
Format : AC-3
Format/Info : Audio Coding 3
Mode extension : CM (complete main)
Codec ID : A_AC3
Duration : 2h 6mn
Bit rate mode : Constant
Bit rate : 448 Kbps
Channel(s) : 6 channels
Channel positions : Front: L C R, Side: L R, LFE
Sampling rate : 48.0 KHz
Bit depth : 16 bits
Compression mode : Lossy
Stream size : 406 MiB (10%)
Title : Dub
Language : Ukrainian
Default : Yes
Forced : No

Audio #2
ID : 3
Format : AC-3
Format/Info : Audio Coding 3
Mode extension : CM (complete main)
Codec ID : A_AC3
Duration : 2h 6mn
Bit rate mode : Constant
Bit rate : 192 Kbps
Channel(s) : 2 channels
Channel positions : Front: L R
Sampling rate : 48.0 KHz
Bit depth : 16 bits
Compression mode : Lossy
Stream size : 174 MiB (4%)
Title : Tak Treba Production
Language : Ukrainian
Default : No
Forced : No

Audio #3
ID : 4
Format : AC-3
Format/Info : Audio Coding 3
Mode extension : CM (complete main)
Codec ID : A_AC3
Duration : 2h 6mn
Bit rate mode : Constant
Bit rate : 448 Kbps
Channel(s) : 6 channels
Channel positions : Front: L C R, Side: L R, LFE
Sampling rate : 48.0 KHz
Bit depth : 16 bits
Compression mode : Lossy
Stream size : 406 MiB (10%)
Title : Original
Language : English
Default : No
Forced : No

Text #1
ID : 5
Format : UTF-8
Codec ID : S_TEXT/UTF8
Codec ID/Info : UTF-8 Plain Text
Language : English
Default : No
Forced : No

Text #2
ID : 6
Format : UTF-8
Codec ID : S_TEXT/UTF8
Codec ID/Info : UTF-8 Plain Text
Language : Ukrainian
Default : Yes
Forced : No
Скріншоти:



Джерело:
Особиста оцінка: 10 - без зайвих вагань рекомендую всім!


 Трекер:    Зареєстрований   

Завантажити / скачати фільм українською



відео для новачків



 Зареєстрований:   2013-07-24 08:59
 Розмір:   4.14 GB 
 Оцінка фільму:   9.9/10 (Голосів: 36)
   
Інші релізи
   Зоряний шлях / Star Trek (2009) 1080p (60fps) Ukr/Eng | Sub Ukr/Eng Drool  5 / 0   19.51 GB   2013-10-19 18:33 
   Зоряний шлях / Star Trek (2009) 2xUkr BILko  12 / 0   2.17 GB   2012-06-02 16:42 
   Зоряний шлях / Star Trek (2009) black0wolf  0 / 0   1.99 GB   2009-11-04 18:03 
   Зоряний шлях / Star Trek (2009) 1080p Ukr/Eng | Sub Ukr/Eng SainTManiac  10 / 0   13.59 GB   2009-10-30 17:41 
   Зоряний шлях / Star Trek (2009) Snooppy  4 / 0   2.18 GB   2009-10-29 19:27 
   Зоряний шлях / Star Trek (2009) fazza  2 / 0   1.95 GB   2009-10-29 12:44 
bot 
робот


З нами з: 30.09.07
Востаннє: 26.05.05
Повідомлень: 16048

2013-07-23 21:45  
Тему перенесено з Фільми в HD до форуму Пісочниця


aalleexx85

bot 
робот


З нами з: 30.09.07
Востаннє: 26.05.05
Повідомлень: 16048

2013-07-24 08:57  
Тему перенесено з Пісочниця до форуму Фільми в HD


aalleexx85

ilitbr 
VIP


З нами з: 25.05.09
Востаннє: 08.12.16
Повідомлень: 427

2013-07-24 19:38  
Дякую за укр. саби.
aalleexx85 
Відео Гуртом - фільмокрай
Відео Гуртом - фільмокрай


З нами з: 27.07.10
Востаннє: 10.12.16
Повідомлень: 1139

2013-07-25 21:05  
інші релізи можна в архів перенести:
Цитата:
Зоряний шлях / Star Trek (2009)
Зоряний шлях / Star Trek (2009) 720p
Зоряний шлях / Star Trek (2009)
Зоряний шлях / Star Trek (2009)

ratbol 
Модератор HD


З нами з: 03.02.09
Востаннє: 10.12.16
Повідомлень: 1088

2013-07-26 00:42  
Цитата:
Зоряний шлях / Star Trek (2009) 720p

Якби ще тут відео краще було, тоді можна було б...

Amsterdam 
Новенький


З нами з: 05.11.10
Востаннє: 08.12.16
Повідомлень: 22

2016-11-11 21:20  
зіткнувся з "цікавою" штукою. Чомусь цей файл, мій телевізор LG не хоче перемотувати і завжди починає з початку фільму якщо вимикаєш і знову вмикаєш його перегляд. Це вперше у мене. Ніхто не знає чому?
Wensun 
Частий відвідувач


З нами з: 20.01.09
Востаннє: 06.12.16
Повідомлень: 47

2016-11-11 22:15  
сильне кіно ! але всю картину портить велосиПедик
Ваш часовий пояс: GMT + 2 Години

Нова тема   Відповісти