Завантажити та скачати торренти українською


Королі вулиць / Street Kings (2008) 1080p Ukr/Eng | Sub Ukr/Eng

Нові коментарі

Нова тема   Відповісти
Автор Повідомлення
Anonymous 







2013-07-23 06:38  
Королі вулиць / Street Kings (2008) 1080p Ukr/Eng | Sub Ukr/Eng



Альтернативні українські постери





Жанр: бойовик, трилер, драма, кримінальний
Країна: США



Кінокомпанія: Fox Searchlight Pictures, Regency Enterprises, 3 Arts Entertainment
Режисер: Девід Аєр / David Ayer
Актори: Кіану Рівз / Keanu Reeves, Форест Вайтакер / Forest Whitaker, Х'ю Лорі / Hugh Laurie, Кріс Еванс / Chris Evans, Джей Мор / Jay Mohr та інші.

Сюжет:
Поліцейський з Лос-Анджелеса жодного разу в житті не замислювався над тим, що його може чекати за межею власного затишного світу. Проте зі смертю улюбленої дружини в його життя входить темна, нещадна, відчайдушна порожнеча. Ладлов вимушений діяти, коли його ж власні друзі-соратники звинувачують його у вбивстві. Так починається боротьба людини за своє місце у світі, який все більше і більше контролюється зовнішніми силами.
Цікаві факти про фільм

• Зйомки проходили з 21 травня 2007 року в Лос-Анджелесі.
• Джеймс Еллрой написав сценарну заявку в середині 90-х під враженням від судового процесу над О. Дж. Сімпсоном. З тих пір до роботи над фільмом залучалися Олівер Стоун, Спайк Лі і Девід Фінчер, а головну роль мав зіграти Шон Пенн.
• Під час перестрілки в магазині Том Ладлов поранив Вашингтона в праву лопатку, а пізніше читає в результатах балістичної експертизи, що куля витягнута з лівої лопатки.
• Бюджет - $20,000,000
рейтинг MPAA: R - особам до 17 років обов'язкова присутність батьків або дорослого опікуна
Вікова категорія: 16+

Тривалість: 01:48:48
Якість: 1080p
Відео:
кодек:
розмір кадру: 1920x800
бітрейт: 6693 кб/с

Аудіо # 1:
мова: українська
переклад: багатоголосий закадровий
Ролі озвучили: Ярослав Чорненький (Кіану Рівз / Детектив Том Ладлов), Олег Стальчук (Форрест Вайтакер / Капітан Джек Вандер), Юрій Гребельник (Х'ю Лоррі / Капітан Джеймс Біггз)
кодек: 5.1
бітрейт: 448 кб/с

Аудіо # 2:
мова: англійська
переклад: оригінал
кодек: 5.1
бітрейт: 448 кб/с

Субтитри # 1:
мова: українська
тип: програмні (м'які)
формат: *.srt

Субтитри # 2:
мова: англійська
тип: програмні (м'які)
формат: *.srt

Збережено оригінальні розділи, як на Blu-ray.
MediaInfo
General
Unique ID : 234205559127588553553743474336139516856 (0xB032599619530AA78C1B82A35BDB1BB8)
Complete name : Street.Kings.2008..1080p.Ukr.Eng.mkv
Format : Matroska
Format version : Version 4 / Version 2
File size : 5.77 GiB
Duration : 1h 48mn
Overall bit rate : 7 587 Kbps
Movie name : Королі вулиць / Street Kings / Короли улиц (2008)
Encoded date : UTC 2013-07-22 17:39:41
Writing application : mkvmerge v6.3.0 ('You can't stop me!') built on Jun 28 2013 20:09:41
Writing library : libebml v1.3.0 + libmatroska v1.4.0

Video
ID : 1
Format : AVC
Format/Info : Advanced Video Codec
Format profile : [email protected]
Format settings, CABAC : Yes
Format settings, ReFrames : 5 frames
Codec ID : V_MPEG4/ISO/AVC
Duration : 1h 48mn
Bit rate : 6 693 Kbps
Width : 1 920 pixels
Height : 800 pixels
Display aspect ratio : 2.40:1
Frame rate mode : Constant
Frame rate : 23.976 fps
Color space : YUV
Chroma subsampling : 4:2:0
Bit depth : 8 bits
Scan type : Progressive
Bits/(Pixel*Frame) : 0.182
Stream size : 4.97 GiB (86%)
Title : Королі вулиць / Street Kings / Короли улиц (2008) [Boriy]
Writing library : core 132 r2310 76a5c3a
Encoding settings : cabac=1 / ref=5 / deblock=1:-3:-3 / analyse=0x3:0x113 / me=umh / subme=10 / psy=1 / psy_rd=1.00:0.10 / mixed_ref=1 / me_range=32 / chroma_me=1 / trellis=2 / 8x8dct=1 / cqm=0 / deadzone=21,11 / fast_pskip=0 / chroma_qp_offset=-2 / threads=12 / lookahead_threads=1 / sliced_threads=0 / nr=0 / decimate=0 / interlaced=0 / bluray_compat=0 / constrained_intra=0 / bframes=5 / b_pyramid=2 / b_adapt=2 / b_bias=0 / direct=3 / weightb=1 / open_gop=0 / weightp=2 / keyint=240 / keyint_min=23 / scenecut=40 / intra_refresh=0 / rc=2pass / mbtree=0 / bitrate=6693 / ratetol=1.0 / qcomp=0.60 / qpmin=0 / qpmax=69 / qpstep=4 / cplxblur=20.0 / qblur=0.5 / ip_ratio=1.40 / pb_ratio=1.30 / aq=1:0.80
Language : English
Default : Yes
Forced : No

Audio #1
ID : 2
Format : AC-3
Format/Info : Audio Coding 3
Mode extension : CM (complete main)
Format settings, Endianness : Big
Codec ID : A_AC3
Duration : 1h 48mn
Bit rate mode : Constant
Bit rate : 448 Kbps
Channel(s) : 6 channels
Channel positions : Front: L C R, Side: L R, LFE
Sampling rate : 48.0 KHz
Bit depth : 16 bits
Compression mode : Lossy
Stream size : 349 MiB (6%)
Title : MVO [ICTV] 5.1 448 Kbps [Hurtom-JACKUS]
Language : Ukrainian
Default : Yes
Forced : No

Audio #2
ID : 3
Format : AC-3
Format/Info : Audio Coding 3
Mode extension : CM (complete main)
Format settings, Endianness : Big
Codec ID : A_AC3
Duration : 1h 48mn
Bit rate mode : Constant
Bit rate : 448 Kbps
Channel(s) : 6 channels
Channel positions : Front: L C R, Side: L R, LFE
Sampling rate : 48.0 KHz
Bit depth : 16 bits
Compression mode : Lossy
Stream size : 349 MiB (6%)
Title : Original
Language : English
Default : No
Forced : No

Text #1
ID : 4
Format : UTF-8
Codec ID : S_TEXT/UTF8
Codec ID/Info : UTF-8 Plain Text
Title : Ukr full
Language : Ukrainian
Default : No
Forced : No

Text #2
ID : 5
Format : UTF-8
Codec ID : S_TEXT/UTF8
Codec ID/Info : UTF-8 Plain Text
Title : Eng full
Language : English
Default : No
Forced : No

Menu
00:00:00.000 : :Chapter 1
00:04:02.367 : :Chapter 2
00:10:13.237 : :Chapter 3
00:14:47.136 : :Chapter 4
00:18:17.221 : :Chapter 5
00:21:22.197 : :Chapter 6
00:24:44.691 : :Chapter 7
00:28:44.973 : :Chapter 8
00:30:09.974 : :Chapter 9
00:34:25.980 : :Chapter 10
00:38:20.381 : :Chapter 11
00:41:17.516 : :Chapter 12
00:44:57.653 : :Chapter 13
00:47:09.284 : :Chapter 14
00:50:12.968 : :Chapter 15
00:54:22.550 : :Chapter 16
00:57:35.827 : :Chapter 17
01:00:36.299 : :Chapter 18
01:04:01.671 : :Chapter 19
01:07:32.673 : :Chapter 20
01:11:08.555 : :Chapter 21
01:15:26.688 : :Chapter 22
01:22:26.942 : :Chapter 23
01:28:34.809 : :Chapter 24
01:32:36.801 : :Chapter 25
01:35:54.582 : :Chapter 26
01:40:31.066 : :Chapter 27
01:42:49.163 : :Chapter 28
01:48:48.480 : :Chapter 29


Джерела та подяки: ріп відео, оригінальні звук та субтитри - boriy (рутор); українська доріжка - JACKUS - зведення, MAKAPOHHIK та olgaya - запис з ТБ; українські субтитри - Blu Ray (HQSub's), редагування: Віктор (w2958l); українські постери - ika1963, grytzz, bilenkuyboy (всі - Гуртом).

Особиста оцінка: 8 - мені сподобалося

ЗАЛИШАЙТЕСЬ ЯКОМОГА ДОВШЕ НА РОЗДАЧІ!

СКАЧАВ САМ - ДАЙ СКАЧАТИ ІНШИМ


 Трекер:    Зареєстрований   

Завантажити / скачати фільм українською



відео для новачків



 Зареєстрований:   2013-07-23 06:38
 Розмір:   5.77 GB 
 Оцінка фільму:   5.7/10 (Голосів: 22)
   
Інші релізи
   Королі вулиць / Street Kings (2008) 720p Ukr/Eng | Sub Ukr/Eng Віктор  1 / 0   7.01 GB   2011-09-30 17:39 
   Королі вулиць / Street Kings (2008) BASTERD-94  1 / 0   1.37 GB   2011-08-22 23:14 
   Королі вулиць / Street Kings (2008) Ukr/Eng | sub Eng JACKUS  7 / 0   2.18 GB   2011-02-28 01:01 
PUMAUA 
Свій


З нами з: 07.11.09
Востаннє: 02.12.16
Повідомлень: 56

2013-07-25 14:01  
Вартий перегляду.
Ваш часовий пояс: GMT + 2 Години

Нова тема   Відповісти