Завантажити та скачати торренти українською


Нещадний / Faster (2010) 1080p Ukr/Eng | Sub Ukr/Eng

Нові коментарі

Нова тема   Відповісти
Автор Повідомлення
Anonymous 







2013-07-21 10:21  
Нещадний / Faster (2010) 1080p Ukr/Eng | Sub Ukr/Eng



Жанр: бойовик, трилер, драма, кримінальний
Країна: США



Кінокомпанія: CBS Films, TriStar Pictures, Castle Rock Entertainment, State Street Pictures
Режисер: Джордж Тіллман мол. / George Tillman Jr.
Композитор: Клінт Манселл / Clint Mansell
Актори: Двейн Джонсон / Dwayne Johnson, Біллі Боб Торнтон / Billy Bob Thornton, Олівер Джексон Коен / Oliver Jackson-Cohen, Меґі Ґрейс / Maggie Grace, Майк Еппс / Mike Epps, Том Беренджер / Tom Berenger, Карла Ґуджино / Carla Gugino, Мун Бладґуд / Moon Bloodgood, Джон Сайріґліано / John Cirigliano та інші

Сюжет:
Він провів багато часу за ґратами, щоб придумати план помсти за вбивство брата. Йому потрібні лише дві речі: швидкий автомобіль та надійна зброя. Бо його формула справедливості проста - швидкість, влучність та жодних компромісів.


рейтинг MPAA: R - особам до 17 років обов'язкова присутність батьків або дорослого опікуна
Вікова категорія: 16+

Тривалість: 01:37:57
Якість: 1080p
Відео:
кодек:
розмір кадру: 1920x800
бітрейт: 9415 кб/с

Аудіо # 1:
мова: українська - LeDoyen Studio
переклад: професійний дубльований
кодек: 5.1
бітрейт: 640 кб/с
Інформація про дубляж

Дубльовано LeDoyen Studio на замовлення "B&H Film Distribution" у 2010.
Режисер дубляжу: Анна Пащенко
Перекладач: Федір Сидорук
Звукорежисер: Андрій Тріфонов
Ролі дублювали: Михайло Жонін (Двейн Джонсон / Водило), Андрій Самінін (Біллі Боб Торнтон / Коп), Володимир Остапчук, Олена Узлюк (Карла Ґуджино / Сісеро), Катерина Качан, Наталя Ярошенко (Мун Бладґуд / Марина), Юрій Ребрик (Адевейл Акінє-Аґбаж / Євангеліст), Володимир Терещук, Григорій Герман (Майк Епс / Рой Ґрон), Олександр Ігнатуша (Том Беренджер / Начальник в'язниці), Ольга Радчук, Анатолій Пашнін (Джон Сайріґліано / Старий), Андрій Мостренко? (Мет Джеральд / Брат), Борис Георгієвський (Лестер Спейт / Baphomet), Дмитро Гаврилов, Михайло Войчук?, Анатолій Барчук? та інші.
Аудіо # 2:
мова: англійська
переклад: оригінал
кодек: 5.1
бітрейт: 640 кб/с

Субтитри # 1:
мова: українська
тип: програмні (м'які)
формат: *.srt

Субтитри # 2:
мова: англійська
тип: програмні (м'які)
формат: *.srt

Збережено оригінальні розділи, як на Blu-ray.
MediaInfo та
[info]: frame I:1202 Avg QP:19.04 size:179920
[info]: frame P:33594 Avg QP:21.70 size: 80489
[info]: frame B:106132 Avg QP:23.89 size: 37649
==============================================================================
General
Unique ID : 248647082649993721597901803689966159213 (0xBB0FAFAB32891B3D9EB1B7DF1B65C56D)
Complete name : Faster.2010..1080p.Ukr.Eng.mkv
Format : Matroska
Format version : Version 4 / Version 2
File size : 7.32 GiB
Duration : 1h 37mn
Overall bit rate : 10.7 Mbps
Movie name : Нещадний / Faster / Быстрее пули (2010)
Encoded date : UTC 2013-07-20 23:30:59
Writing application : mkvmerge v6.3.0 ('You can't stop me!') built on Jun 28 2013 20:09:41
Writing library : libebml v1.3.0 + libmatroska v1.4.0

Video
ID : 1
Format : AVC
Format/Info : Advanced Video Codec
Format profile : [email protected]
Format settings, CABAC : Yes
Format settings, ReFrames : 5 frames
Codec ID : V_MPEG4/ISO/AVC
Duration : 1h 37mn
Bit rate : 9 415 Kbps
Width : 1 920 pixels
Height : 800 pixels
Display aspect ratio : 2.40:1
Frame rate mode : Constant
Frame rate : 23.976 fps
Color space : YUV
Chroma subsampling : 4:2:0
Bit depth : 8 bits
Scan type : Progressive
Bits/(Pixel*Frame) : 0.256
Stream size : 6.30 GiB (86%)
Title : Нещадний / Faster / Быстрее пули (2010) [N1NT3NDO]
Writing library : core 135 r2345 f0c1c53
Encoding settings : cabac=1 / ref=5 / deblock=1:-3:-3 / analyse=0x3:0x133 / me=umh / subme=11 / psy=1 / psy_rd=1.00:0.00 / mixed_ref=1 / me_range=32 / chroma_me=1 / trellis=2 / 8x8dct=1 / cqm=0 / deadzone=21,11 / fast_pskip=0 / chroma_qp_offset=-2 / threads=12 / lookahead_threads=1 / sliced_threads=0 / nr=0 / decimate=0 / interlaced=0 / bluray_compat=0 / constrained_intra=0 / bframes=6 / b_pyramid=2 / b_adapt=2 / b_bias=0 / direct=3 / weightb=1 / open_gop=0 / weightp=2 / keyint=240 / keyint_min=23 / scenecut=40 / intra_refresh=0 / rc=2pass / mbtree=0 / bitrate=9415 / ratetol=1.0 / qcomp=0.60 / qpmin=0 / qpmax=69 / qpstep=4 / cplxblur=20.0 / qblur=0.5 / ip_ratio=1.40 / pb_ratio=1.30 / aq=1:0.70
Language : English
Default : Yes
Forced : No

Audio #1
ID : 2
Format : AC-3
Format/Info : Audio Coding 3
Mode extension : CM (complete main)
Format settings, Endianness : Big
Codec ID : A_AC3
Duration : 1h 37mn
Bit rate mode : Constant
Bit rate : 640 Kbps
Channel(s) : 6 channels
Channel positions : Front: L C R, Side: L R, LFE
Sampling rate : 48.0 KHz
Bit depth : 16 bits
Compression mode : Lossy
Stream size : 448 MiB (6%)
Title : Dub [LeDoyen Studio-Blu-ray] 5.1 640 Kbps
Language : Ukrainian
Default : Yes
Forced : No

Audio #2
ID : 3
Format : AC-3
Format/Info : Audio Coding 3
Mode extension : CM (complete main)
Format settings, Endianness : Big
Codec ID : A_AC3
Duration : 1h 37mn
Bit rate mode : Constant
Bit rate : 640 Kbps
Channel(s) : 6 channels
Channel positions : Front: L C R, Side: L R, LFE
Sampling rate : 48.0 KHz
Bit depth : 16 bits
Compression mode : Lossy
Stream size : 448 MiB (6%)
Title : Original
Language : English
Default : No
Forced : No

Text #1
ID : 4
Format : UTF-8
Codec ID : S_TEXT/UTF8
Codec ID/Info : UTF-8 Plain Text
Title : Ukr full [Hurtom-terminator.92, w2958l]
Language : Ukrainian
Default : No
Forced : No

Text #2
ID : 5
Format : UTF-8
Codec ID : S_TEXT/UTF8
Codec ID/Info : UTF-8 Plain Text
Title : Eng full
Language : English
Default : No
Forced : No

Menu
00:00:00.000 : :Chapter 01
00:07:51.012 : :Chapter 02
00:11:59.844 : :Chapter 03
00:20:57.089 : :Chapter 04
00:24:29.342 : :Chapter 05
00:30:38.837 : :Chapter 06
00:35:46.769 : :Chapter 07
00:43:30.566 : :Chapter 08
00:47:07.533 : :Chapter 09
00:54:53.039 : :Chapter 10
00:59:17.178 : :Chapter 11
01:07:08.566 : :Chapter 12
01:11:28.242 : :Chapter 13
01:17:09.082 : :Chapter 14
01:23:05.563 : :Chapter 15
01:28:45.361 : :Chapter 16


Джерела та подяки: ріп відео, оригінальні звук та субтитри, українська доріжка - N1NT3NDO (рутор); українські субтитри - terminator.92 (переклад), w2958l/Віктор (редагування), karvai0 (синхронізація) (Гуртом); український постер - kinopoisk .

Особиста оцінка: 8 - мені сподобалося

ЗАЛИШАЙТЕСЬ ЯКОМОГА ДОВШЕ НА РОЗДАЧІ!

СКАЧАВ САМ - ДАЙ СКАЧАТИ ІНШИМ


 Трекер:    Зареєстрований   

Завантажити / скачати фільм українською



відео для новачків



 Зареєстрований:   2013-07-21 10:21
 Розмір:   7.32 GB 
 Оцінка фільму:   5.1/10 (Голосів: 20)
   
Інші релізи
Ваш часовий пояс: GMT + 2 Години

Нова тема   Відповісти