Завантажити та скачати торренти українською


Правдива брехня / True Lies (1994) D-TheaterRip 1080p 2xUkr/Eng | Sub Ukr/Eng

Нові коментарі

Нова тема   Відповісти
Автор Повідомлення
Anonymous 







2013-07-20 19:55  
Правдива брехня / True Lies (1994) D-TheaterRip 1080p 2xUkr/Eng | Sub Ukr/Eng



Альтернативний постер


Жанр: бойовик, трилер, комедія, мелодрама, пригодницький
Країна: США



Кінокомпанія: Twentieth Century Fox Film Corporation, Lightstorm Entertainment
Режисер: Джеймс Кемерон / James Cameron
Актори: Арнольд Шварценеґґер / Arnold Schwarzenegger, Джеймі Лі Кертіс / Jamie Lee Curtis, Том Арнольд / Tom Arnold, Білл Пекстон / Bill Paxton, Тіа Каррере / Tia Carrere, Арт Малік / Art Malik, Чарлтон Хестон / Charlton Heston, Еліза Душку / Eliza Dushku, Грант Хеслов / Grant Heslov, Маршалл Манеш / Marshall Manesh та інші

Сюжет:
Для своєї сім'ї Гаррі Таскер - люблячий чоловік і батько, людина скромна і сором'язлива, звичайний продавець комп'ютерів, що «не вилазить» з роботи ні вдень, ні вночі. Але лише дехто знає, що насправді Гаррі - спеціальний агент таємної урядової служби, що спеціалізується на особливо небезпечних завданнях, володіє купою мов, всіма видами зброї і техніки та всіма можливими способами «відправки» лиходіїв на той світ.
Агент Таскер і далі продовжував би вести подвійне життя, якби зловісні арабські терористи не викрали його, а разом з ним і його дружину Хелен, що нічого не підозрювала про таємну роботу чоловіка. Але бандити, на своє нещастя, навіть не підозрювали з ким зв'язалися. І Хелен дізналася, що її чоловік зовсім не комп'ютерщик, і що вона п'ятнадцять років прожила з людиною, поряд з якою Рембо виглядає дитиною...


Усі нагороди та номінації


Оскар, 1995 рік
Номінації (1):
Кращі візуальні ефекти


Золотий глобус, 1995 рік
Переможець (1):
Краща жіноча роль (комедія чи мюзикл) (Джеймі Лі Кертіс)


Правдива брехня / True Lies (1994) D-TheaterRip 1080p 2xUkr/Eng | Sub Ukr/Eng
Британська академія кіно та телевізійного мистецтва, 1995 рік
Номінації (1):
Кращі візуальні ефекти

Правдива брехня / True Lies (1994) D-TheaterRip 1080p 2xUkr/Eng | Sub Ukr/Eng
Премія Гільдії акторів, 1995 рік
Номінації (1):
Краща другорядна жіноча роль (Джеймі Лі Кертіс)


Премія каналу MTV, 2000 рік
Номінації (5):
Краща жіноча роль (Джеймі Лі Кертіс)
Краща комедійна роль (Том Арнольд)
Кращий танець (Тіа Каррере, Арнольд Шварценеґґер)
Краща экшн-сцена
Кращий поцілунок (Джеймі Лі Кертіс, Арнольд Шварценеґґер)



Сатурн, 1995 рік
Переможець (3):
Кращий режисер (Джеймс Кемерон)
Краща актриса (Джеймі Лі Кертіс)
Кращі спецефекти


Номінації (4):
Кращий актор (Арнольд Шварценеґґер)
Кращий другорядний актер (Білл Пекстон)
Краща другорядна актриса (Тіа Каррере)
Кращий пригодницький фільм, бойовик чи трилер


рейтинг MPAA: R - особам до 17 років обов'язкова присутність батьків або дорослого опікуна
Вікова категорія: 16+

Тривалість: 02:21:58
Якість: D-TheaterRip 1080p (wiki, HDClub)
Відео:
кодек:
розмір кадру: 1920х820
бітрейт: 9875 кб/с

Аудіо # 1:
мова: українська - Так Треба Продакшн
переклад: багатоголосий закадровий
Ролі озвучили: Олег Стальчук (Арнольд Шварценеґґер / Гаррі Таскер)
кодек: 5.1
бітрейт: 448 кб/с

Аудіо # 2:
мова: українська
переклад: двоголосий закадровий
Ролі озвучили: Михайло Жонін - усі чоловічі ролі
кодек: 5.1
бітрейт: 448 кб/с

Аудіо # 3:
мова: англійська
переклад: оригінал
кодек: 5.1
бітрейт: 640 кб/с

Субтитри: # 1:
мова: українська
тип: програмні (м'які)
формат: *.srt

Субтитри: # 2:
мова: англійська
тип: програмні (м'які)
формат: *.srt

Збережено оригінальні розділи, як на Blu-ray.
MediaInfo та
[info]: frame I:1705 Avg QP:17.99 size:139563
[info]: frame P:66468 Avg QP:20.69 size: 72325
[info]: frame B:136062 Avg QP:21.63 size: 40192
=================================================================================
General
Unique ID : 201848973272269465246653802044426043156 (0x97DAB2BC603B9137A97648F8FB283F14)
Complete name : True.Lies.1994.D-TheaterRip.1080p.2xUkr.Eng.mkv
Format : Matroska
Format version : Version 4 / Version 2
File size : 11.3 GiB
Duration : 2h 21mn
Overall bit rate : 11.4 Mbps
Movie name : Правдива брехня / True Lies / Правдивая ложь (1994)
Encoded date : UTC 2013-07-19 18:12:57
Writing application : mkvmerge v6.3.0 ('You can't stop me!') built on Jun 28 2013 20:09:41
Writing library : libebml v1.3.0 + libmatroska v1.4.0

Video
ID : 1
Format : AVC
Format/Info : Advanced Video Codec
Format profile : [email protected]
Format settings, CABAC : Yes
Format settings, ReFrames : 5 frames
Codec ID : V_MPEG4/ISO/AVC
Duration : 2h 21mn
Bit rate : 9 875 Kbps
Width : 1 920 pixels
Height : 820 pixels
Display aspect ratio : 2.35:1
Frame rate mode : Constant
Frame rate : 23.976 fps
Color space : YUV
Chroma subsampling : 4:2:0
Bit depth : 8 bits
Scan type : Progressive
Bits/(Pixel*Frame) : 0.262
Stream size : 9.57 GiB (85%)
Title : Правдива брехня / True Lies / Правдивая ложь (1994) D-TheaterRip [K.A.F.]
Writing library : core 130 r2273 b3065e6
Encoding settings : cabac=1 / ref=5 / deblock=1:-3:-3 / analyse=0x3:0x133 / me=tesa / subme=11 / psy=1 / psy_rd=1.00:0.09 / mixed_ref=1 / me_range=32 / chroma_me=1 / trellis=2 / 8x8dct=1 / cqm=0 / deadzone=21,11 / fast_pskip=0 / chroma_qp_offset=-3 / threads=12 / lookahead_threads=1 / sliced_threads=0 / nr=0 / decimate=0 / interlaced=0 / bluray_compat=0 / constrained_intra=0 / bframes=3 / b_pyramid=2 / b_adapt=2 / b_bias=0 / direct=3 / weightb=1 / open_gop=0 / weightp=2 / keyint=240 / keyint_min=23 / scenecut=40 / intra_refresh=0 / rc_lookahead=60 / rc=2pass / mbtree=1 / bitrate=9875 / ratetol=1.0 / qcomp=0.60 / qpmin=0 / qpmax=69 / qpstep=4 / cplxblur=20.0 / qblur=0.5 / ip_ratio=1.40 / aq=1:1.00
Language : English
Default : Yes
Forced : No

Audio #1
ID : 2
Format : AC-3
Format/Info : Audio Coding 3
Mode extension : CM (complete main)
Format settings, Endianness : Big
Codec ID : A_AC3
Duration : 2h 21mn
Bit rate mode : Constant
Bit rate : 448 Kbps
Channel(s) : 6 channels
Channel positions : Front: L C R, Side: L R, LFE
Sampling rate : 48.0 KHz
Bit depth : 16 bits
Compression mode : Lossy
Delay relative to video : 10ms
Stream size : 455 MiB (4%)
Title : MVO [TRK Ukraina] 5.1 448 Kbps [Hurtom-Romario_O]
Language : Ukrainian
Default : Yes
Forced : No

Audio #2
ID : 3
Format : AC-3
Format/Info : Audio Coding 3
Mode extension : CM (complete main)
Format settings, Endianness : Big
Codec ID : A_AC3
Duration : 2h 21mn
Bit rate mode : Constant
Bit rate : 448 Kbps
Channel(s) : 6 channels
Channel positions : Front: L C R, Side: L R, LFE
Sampling rate : 48.0 KHz
Bit depth : 16 bits
Compression mode : Lossy
Delay relative to video : 18ms
Stream size : 455 MiB (4%)
Title : DVO [1+1] 5.1 448 Kbps [Hurtom-Romario_O]
Language : Ukrainian
Default : No
Forced : No

Audio #3
ID : 4
Format : AC-3
Format/Info : Audio Coding 3
Mode extension : CM (complete main)
Format settings, Endianness : Big
Codec ID : A_AC3
Duration : 2h 21mn
Bit rate mode : Constant
Bit rate : 640 Kbps
Channel(s) : 6 channels
Channel positions : Front: L C R, Side: L R, LFE
Sampling rate : 48.0 KHz
Bit depth : 16 bits
Compression mode : Lossy
Delay relative to video : 29ms
Stream size : 650 MiB (6%)
Title : Original 5.1ch 640 kbps
Language : English
Default : No
Forced : No

Text #1
ID : 5
Format : UTF-8
Codec ID : S_TEXT/UTF8
Codec ID/Info : UTF-8 Plain Text
Title : Ukr full [R5]
Language : Ukrainian
Default : No
Forced : No

Text #2
ID : 6
Format : UTF-8
Codec ID : S_TEXT/UTF8
Codec ID/Info : UTF-8 Plain Text
Title : Eng full
Language : English
Default : No
Forced : No

Menu
00:00:00.000 : en:Main Titles
00:01:54.047 : en:Lake Chapeau
00:09:44.150 : en:Tango
00:12:05.358 : en:Here's My Invitation
00:15:11.177 : en:That's It for Mr. Renquist
00:16:58.918 : en:The Tasker Family
00:19:41.280 : en:Not Just a River in Egypt
00:21:08.434 : en:Omega Sector/You Know Harry
00:24:11.617 : en:The Renquist Front
00:27:51.970 : en:The Problem with Terrorists
00:30:16.915 : en:Bathroom Fight
00:32:43.695 : en:My Horse Is Getting Tired
00:41:29.320 : en:A Great Birthday
00:43:19.897 : en:Welcom to the Club
00:46:33.357 : en:A Little Excitement
00:50:48.679 : en:Simon's "Op"
00:53:20.364 : en:One Born Every Minute
00:57:25.709 : en:Seek Help, Harry
00:59:32.836 : en:A Misappropriation of Sector Resources
01:01:02.159 : en:Safe House
01:05:43.139 : en:Helen Looking in the Glass
01:13:56.198 : en:The End of Carlos the Jackal
01:15:50.813 : en:An Envelope Marked Doris
01:19:52.454 : en:The Suite at the Marquis
01:27:52.534 : en:Tasker, Not Renquist
01:29:41.676 : en:The Four Horsemen
01:35:43.838 : en:Truth Agent
01:41:04.325 : en:I Married Rambo
01:42:58.572 : en:Uh-Oh
01:45:04.198 : en:Just Us
01:51:03.190 : en:I Thought This Looked Like Your Work
01:52:08.522 : en:Bright Boy Alert
01:54:33.900 : en:Time to Kick Ass
01:55:56.817 : en:Limo Rescue
02:00:24.117 : en:Nuclear Kiss
02:01:44.097 : en:Borrowing a Harrier
02:04:07.807 : en:Dana the Hostage/a Man Inside
02:05:22.982 : en:Who's Taken the Key?
02:07:15.428 : en:On the Crane
02:08:09.048 : en:A Crimson Jihad
02:08:53.092 : en:Dad?!
02:11:59.645 : en:Fired
02:14:45.477 : en:Boris and Doris
02:17:26.872 : en:End Titles


Джерела та подяки: ріп відео, оригінальні та українські субтитри (DVD R5] - K.A.F. (рутор); українські доріжки - Romario_O; українські постери - abodnya та pohgejib (всі - Гуртом).

Особиста оцінка: 8 - мені сподобалося

ЗАЛИШАЙТЕСЬ ЯКОМОГА ДОВШЕ НА РОЗДАЧІ!

СКАЧАВ САМ - ДАЙ СКАЧАТИ ІНШИМ


Срібний реліз (на рейтинг впливає 50% завантаженого)
 Трекер:    Зареєстрований   

Завантажити / скачати фільм українською



відео для новачків



 Зареєстрований:   2013-07-20 19:55
 Розмір:   11.32 GB 
 Оцінка фільму:   5.8/10 (Голосів: 22)
   
MrRyanCooper 
VIP


З нами з: 23.08.12
Востаннє: 02.12.16
Повідомлень: 280

2016-08-13 21:14  
Хм, що таке D-TheaterRip? Вперше чую о_О
Anonymous 







2016-08-14 23:08  
MrRyanCooper, а про гугл чув?
Bruce_Nolan 
Свій


З нами з: 17.06.14
Востаннє: 26.11.16
Повідомлень: 120

2016-09-22 20:38  
А звук з 2+2 ніхто не писатиме? (23.09.2016 в 19:20) Там може теж багатоголоска. Звичайно і від УКРАЇНИ вистача, та для колекції можна ж взяти.
Anonymous 







2016-09-22 20:40  
Bruce_Nolan, 99% що там буде озвучка плюсів.

Додано через 57 секунд:

але свіжий якісний запис не завадить.

Ваш часовий пояс: GMT + 2 Години

Нова тема   Відповісти