Завантажити та скачати торренти українською


Історія світу. Частина перша / History of the World, Part I (1981) 720p Ukr/Eng | sub Eng

Нові коментарі

Нова тема   Відповісти
Автор Повідомлення
Omikron 
VIP


З нами з: 03.01.12
Востаннє: 09.12.16
Повідомлень: 298

2013-07-19 15:19  
Історія світу. Частина перша / History of the World, Part I (1981) 720p Ukr/Eng | sub Eng

Історія світу. Частина перша / History of the World, Part I (1981) 720p Ukr/Eng | sub Eng


Жанр: комедія
Країна: США



Кінокомпанія: Brooksfilms
Режисер: Мел Брукс
Актори: Мел Брукс, Дом ДеЛуїз, Маделін Кан, Гарві Корман, Корі Лексан, Рон Кері

Сюжет:
Історія світу від кам'яної доби до французької революції, подана у комедійній формі.


Українською мовою озвучено студією Омікрон на замовлення HURTOM.COM


Тривалість: 01:32:16
Якість:
Відео:
кодек:
розмір кадру: 1280x542
бітрейт: 5055 кб/с
CRF: 19

Аудіо # 1:
мова: українська | Омікрон
переклад: багатоголосий закадровий
кодек: 5.1
бітрейт: 448 кб/с

Аудіо # 2:
мова: англійська
переклад: оригінал
кодек: 5.1
бітрейт: 448 кб/с

Субтитри # 1:
мова: англійська
тип: програмні (м'які)
формат: *.srt

Звіт MediaInfo
General
Unique ID : 201006867234598399940368271535465759369 (0x973883B3E09036639222C0F828E30289)
Complete name : History of the World Part I (1981) [ukr,eng] 720p [Hurtom].mkv
Format : Matroska
Format version : Version 4 / Version 2
File size : 3.91 GiB
Duration : 1h 32mn
Overall bit rate : 6 072 Kbps
Movie name : Історія світу. Частина перша / History of the World, Part I (1981) [Hurtom]
Encoded date : UTC 2013-07-19 09:47:04
Writing application : mkvmerge v6.2.0 ('Promised Land') built on Apr 28 2013 12:22:01
Writing library : libebml v1.3.0 + libmatroska v1.4.0

Video
ID : 1
Format : AVC
Format/Info : Advanced Video Codec
Format profile : [email protected]
Format settings, CABAC : Yes
Format settings, ReFrames : 8 frames
Codec ID : V_MPEG4/ISO/AVC
Duration : 1h 32mn
Bit rate : 5 055 Kbps
Width : 1 280 pixels
Height : 542 pixels
Display aspect ratio : 2.35:1
Frame rate mode : Constant
Frame rate : 23.976 fps
Color space : YUV
Chroma subsampling : 4:2:0
Bit depth : 8 bits
Scan type : Progressive
Bits/(Pixel*Frame) : 0.304
Stream size : 3.26 GiB (83%)
Writing library : core 133 r2334 a3ac64b
Encoding settings : cabac=1 / ref=8 / deblock=1:-3:-1 / analyse=0x3:0x133 / me=umh / subme=10 / psy=1 / psy_rd=1.00:0.15 / mixed_ref=1 / me_range=32 / chroma_me=1 / trellis=2 / 8x8dct=1 / cqm=0 / deadzone=21,11 / fast_pskip=0 / chroma_qp_offset=-3 / threads=12 / lookahead_threads=1 / sliced_threads=0 / nr=0 / decimate=1 / interlaced=0 / bluray_compat=0 / constrained_intra=0 / bframes=3 / b_pyramid=2 / b_adapt=2 / b_bias=0 / direct=3 / weightb=1 / open_gop=0 / weightp=2 / keyint=240 / keyint_min=23 / scenecut=40 / intra_refresh=0 / rc_lookahead=60 / rc=crf / mbtree=1 / crf=19.0 / qcomp=0.60 / qpmin=0 / qpmax=69 / qpstep=4 / vbv_maxrate=24000 / vbv_bufsize=24000 / crf_max=0.0 / nal_hrd=none / ip_ratio=1.40 / aq=1:1.00
Default : Yes
Forced : No

Audio #1
ID : 2
Format : AC-3
Format/Info : Audio Coding 3
Mode extension : CM (complete main)
Format settings, Endianness : Big
Codec ID : A_AC3
Duration : 1h 32mn
Bit rate mode : Constant
Bit rate : 448 Kbps
Channel(s) : 6 channels
Channel positions : Front: L C R, Side: L R, LFE
Sampling rate : 48.0 KHz
Bit depth : 16 bits
Compression mode : Lossy
Stream size : 296 MiB (7%)
Title : Озвучено студією Омікрон на замовлення hurtom.com
Language : Ukrainian
Default : Yes
Forced : No

Audio #2
ID : 3
Format : AC-3
Format/Info : Audio Coding 3
Mode extension : CM (complete main)
Format settings, Endianness : Big
Codec ID : A_AC3
Duration : 1h 32mn
Bit rate mode : Constant
Bit rate : 448 Kbps
Channel(s) : 6 channels
Channel positions : Front: L C R, Side: L R, LFE
Sampling rate : 48.0 KHz
Bit depth : 16 bits
Compression mode : Lossy
Stream size : 296 MiB (7%)
Title : Original
Language : English
Default : No
Forced : No

Text
ID : 4
Format : UTF-8
Codec ID : S_TEXT/UTF8
Codec ID/Info : UTF-8 Plain Text
Title : Original
Language : English
Default : No
Forced : No
log
[info]: frame I:1066 Avg QP:17.42 size:150779
[info]: frame P:35149 Avg QP:20.44 size: 53121
[info]: frame B:96530 Avg QP:23.39 size: 16083
[info]: consecutive B-frames: 1.4% 2.5% 7.5% 88.6%
[info]: mb I I16..4: 14.3% 64.5% 21.3%
[info]: mb P I16..4: 0.3% 9.6% 1.3% P16..4: 35.1% 26.9% 20.9% 1.4% 0.6% skip: 3.9%
[info]: mb B I16..4: 0.0% 1.8% 0.2% B16..8: 41.8% 11.5% 4.2% direct: 6.8% skip:33.7% L0:39.9% L1:44.3% BI:15.8%
[info]: 8x8 transform intra:83.5% inter:55.1%
[info]: direct mvs spatial:100.0% temporal:0.0%
[info]: coded y,uvDC,uvAC intra: 97.0% 83.2% 48.0% inter: 39.4% 24.1% 2.7%
[info]: i16 v,h,dc,p: 34% 7% 29% 31%
[info]: i8 v,h,dc,ddl,ddr,vr,hd,vl,hu: 10% 7% 10% 9% 13% 13% 12% 12% 12%
[info]: i4 v,h,dc,ddl,ddr,vr,hd,vl,hu: 10% 7% 4% 9% 15% 15% 14% 13% 13%
[info]: i8c dc,h,v,p: 40% 22% 20% 17%
[info]: Weighted P-Frames: Y:6.9% UV:3.0%
[info]: ref P L0: 37.2% 14.5% 22.1% 6.2% 7.3% 4.2% 5.4% 2.8% 0.4% 0.0%
[info]: ref B L0: 75.8% 11.8% 5.2% 2.9% 2.2% 1.5% 0.7%
[info]: ref B L1: 95.2% 4.8%
[info]: kb/s:5173.37
Про озвучення

Українське озвучення створено в рамках проекту "Хочеш кіно українською? Замовляй!"



Дякуємо користувачу, що фінансово допоміг озвученню Історії світу:
Sehrg-Gut

Детальніше про проект.


Джерело:
За постер подяка __тут_може_бути_ваш_псевдонім__

Фільми, які було озвучено на замовлення Гуртом (допоможіть озвучити наступні):
М: Місто шукає вбивцю (1931)
Чарівник країни Оз (1939)
Великий диктатор (1940)
Громадянин Кейн (1941)
Подвійна страховка (1944)
Це дивовижне життя (1946)
Викрадачі велосипедів (1948)
Рашьомон (1950)
Сім самураїв (1954)
У випадку вбивства телефонуйте "М" (1954)
Леді та Блудько (1955) нове
12 розгніваних чоловіків (1957)
Сьома печатка (1957)
На північ через північний захід (1959)
Більярдист (1961)
Охоронець (1961)
Вбити пересмішника (1962)
Людина, що вбила Ліберті Веленса (1962)
Вісім з половиною (1963)
Велика прогулянка (1966)
Як Ґрінч украв Різдво! (1966)
Випускник (1967)
Самурай (1967)
Одного разу на Дикому Заході (1968)
Коти-аристократи (1970)
Механічний апельсин (1971)
Навколо світу за 80 днів (1972) нове
Китайський квартал (1974)
Пролітаючи над гніздом зозулі (1975)
Телемережа (1976)
Енні Голл (1977) нове
Мисливець на оленів (1978)
Буття Брайана за Монті Пайтоном (1979)
Коли я буду там (1979)
Мангеттен (1979)
Людина-слон (1980)
Приборкання норовливого (1980)
Скажений бик (1980)
Підводний човен (1981)
Ґанді (1982)
Король комедії (1982) нове
Різдвяна історія (1983)
Амадей (1984)
Барва пурпурова (1985)
Бразилія (1985)
Ран (1985)
Великий мишачий детектив (1986)
Небесний замок Лапута (1986)
Акіра (1988)
Мій сусід Тоторо (1988)
Останній з могікан (1992)
Скажені пси (1992)
Шосе в нікуди (1997) нове
Американська історія Ікс (1998)
Страх і огида в Лас-Вегасі (1998)
Шоу Трумена (1998)
Догма (1999)
Магнолія (1999) нове
Сука любов (2000) нове
Нічия земля (2001)
Родина Тененбаумів (2001)
Тріо з Бельвіля (2003)
Труднощі перекладу (2003)
Бункер (2004)
Готель Руанда (2004)
Тренер Картер (2005)
Льодовиковий період 2 (2006)
Лабіринт Фавна (2006)
Людина з планети Земля (2007)
В тіні місяця (2007)
Голод (2008)
Іп Мен (2008)
Викрадена (2008)
Впусти мене (2008)
Хвиля (2008)
Містер Ніхто (2009)
13 вбивць (2010)
Бетмен: Під червоною маскою (2010)
Іп Мен 2 (2010)
Котяче життя (2010)
Позичайка Аріетті (2010)
Чорний Лебідь (2010)
Місто (2010)
Сенна (2010)
50/50 (2011)
Адвокат на лінкольні (2011)
Дерево життя (2011)
Опівночі в Парижі (2011)
Воїн (2011)
Драйв (2011)
Життя за один день (2011)
Укриття (2011)
Хижа в лісі (2011)
Рейд: Спокута (2011)
Акт вбивства (2012)
Арго (2012)
Безпека не гарантується (2012)
Викрадена 2 (2012)
Збірка промінців надії (2012)
Ернест і Селестіна (2012)
Звірі дикого Півдня (2012)
Лінкольн (2012)
Любов (2012)
Надійні хлопці (2012)
Паркер (2012)
Переваги скромників (2012)
Пліч-о-пліч (2012)
Полювання (2012)
Розірване коло (2012)
Суддя Дредд (2012)
Тридцять хвилин по півночі (2012)
Що б ви зробили (2012)
Американська афера (2013)
Виклик (2013)
Вона (2013)
Ворог (2013)
Всередині Л'ювіна Девіса (2013)
Джо (2013)
Зловісні мерці (2013)
Іда (2013)
Лок (2013)
Небраска (2013)
Неймовірна подорож містера Співета (2013) нове
Побічна дія (2013)
Перед північчю (2013)
Снігобур (2013)
Стокер (2013)
TPB: за межами клавіатури (2013)
Гниле місто (2013)
Бердмен (2014)
Вероніка Марс (2014)
Вроджена вада (2014) нове
Дика (2014) нове
Інтерв'ю (2014) нове
Святий Вінсент (2014)
Пісня моря (2014) нове
Призначення (2014) нове
Шеф-кухар (2014)


Авторський реліз (завантажувати можна без реєстрації)
 Трекер:    Зареєстрований   

Завантажити / скачати фільм українською



відео для новачків



 Зареєстрований:   2013-07-23 07:51
 Розмір:   3.91 GB 
 Оцінка фільму:   8/10 (Голосів: 24)
   
Konfucius 
Управління
Управління


З нами з: 30.09.07
Востаннє: 09.12.16
Повідомлень: 4746

2013-07-23 09:15  
Всі релізи Історії:
480p
720p
1080p
Remux

olyx 
Відео Гуртом - підтримка та поширення
Відео Гуртом - підтримка та поширення


З нами з: 25.01.10
Востаннє: 05.10.16
Повідомлень: 231

2013-07-23 11:02  
Дякую за перелік релізів...
DеLight 
Відео Гуртом - фільмокрай
Відео Гуртом - фільмокрай


З нами з: 24.08.11
Востаннє: 17.11.16
Повідомлень: 663

2013-07-23 19:45  
Непогана пародія як на 81-й. Особливо про Францію, і Рим ще. А з графа Підрахуй, тобто ПідраХ'ю найбільше сміялися, це хіт перекладу Wide grin Wide grin Wide grin
Ваш часовий пояс: GMT + 2 Години

Нова тема   Відповісти