Завантажити та скачати торренти українською


ForceOut - Delusion (2013) [FLAC] | Melodic Death Metal

Нові коментарі

Нова тема   Відповісти
Останній раз роздавалося alenas2001 (2014-12-11)
Автор Повідомлення
Kitler 
Модератор програмного забезпечення


З нами з: 22.04.11
Востаннє: 03.12.16
Повідомлень: 591

2013-07-19 12:21  
ForceOut - Delusion (2013) [FLAC] | Melodic Death Metal

ForceOut - Delusion (2013) [FLAC] | Melodic Death Metal


Стиль: Melodic Death Metal
Країна, місто: Україна, Золочів
Видавець: Total Metal Records
Виконавці:
Дімка Крутиголова - вокал, гітара
Віталій Виговський- гітара
Іван Кулішко - бас
Макс Звір - барабани
Пісні:
    01. Intro
    02. Усе, Що Є
    03. Living In Lie
    04. I Need Salvation
    05. Lost Feel
    06. Свинцеві Квіти
    07. The Same
    08. In The Dark
    09. Equilibrium
    10. Not My Delusion
    11. Outro
log
Exact Audio Copy V1.0 beta 3 from 29. August 2011

EAC extraction logfile from 19. July 2013, 12:55

ForceOut / Delusion

Used drive : HL-DT-STDVDRAM GH24NS90 Adapter: 2 ID: 1

Read mode : Secure
Utilize accurate stream : Yes
Defeat audio cache : Yes
Make use of C2 pointers : No

Read offset correction : 0
Overread into Lead-In and Lead-Out : No
Fill up missing offset samples with silence : Yes
Delete leading and trailing silent blocks : No
Null samples used in CRC calculations : Yes
Used interface : Native Win32 interface for Win NT & 2000

Used output format : User Defined Encoder
Selected bitrate : 896 kBit/s
Quality : High
Add ID3 tag : Yes
Command line compressor : C:\Program Files (x86)\Exact Audio Copy\Flac\flac.exe
Additional command line options : -V -8 -T "Genre=%genre%" -T "Artist=%artist%" -T "Title=%title%" -T "Album=%albumtitle%" -T "Date=%year%" -T "Tracknumber=%tracknr%" -T "Comment=%comment%" %source%

TOC of the extracted CD

Track | Start | Length | Start sector | End sector
---------------------------------------------------------
1 | 0:00.00 | 1:46.16 | 0 | 7965
2 | 1:46.16 | 4:07.61 | 7966 | 26551
3 | 5:54.02 | 3:06.58 | 26552 | 40559
4 | 9:00.60 | 4:11.32 | 40560 | 59416
5 | 13:12.17 | 3:03.50 | 59417 | 73191
6 | 16:15.67 | 5:08.38 | 73192 | 96329
7 | 21:24.30 | 3:59.23 | 96330 | 114277
8 | 25:23.53 | 4:32.06 | 114278 | 134683
9 | 29:55.59 | 4:11.64 | 134684 | 153572
10 | 34:07.48 | 4:56.45 | 153573 | 175817
11 | 39:04.18 | 1:37.43 | 175818 | 183135

Range status and errors

Selected range

Filename K:\Музика\Death Metal\ForceOut\2013 - Delusion (flac)\2013 - Delusion.wav

Peak level 100.0 %
Extraction speed 6.4 X
Range quality 100.0 %
Copy CRC A20C18F3
Copy OK

No errors occurred

End of status report
Тривалість: 00:40:41
Мова: українська (2, 6), англійська (3-5, 7-10 )
Аудіо-кодек: FLAC
Бітрейт: ~968 кб/с
Джерело: власний диск
Особиста оцінка: 8 - на 10 ще тре трішки попрацювати
Додаткова інформація:
Спочатку це був міні-акустичний проект під назвою Симфонія вітру. Нашу працю пiдтримало багато людей i з часом з'явились нашi першi шанувальники. В перший склад групи входили всього три учасники і з плином часу ми розширили банду ще трьома музикантами. Незабаром з'явилися барабани, бас-гітара та вокаліст. Перший склад групи включає в себе: Євгенія Муц - вокал; Назар Кашалаба - вокал; Діма Крутиголова - гітара; Павло Kостевський - гітара, Іван Kулiшко - бас-гітара, Макс Звiр - драми. На жаль, пізніше, на початку осені 2009 року, Назар покинув гурт і після цього гітарист Павло теж. На заміну Павла - приходить новий гітарист Володимир Захарчук(Also know as Захара). Після цих змін, група починає працювати, виконувати і записувати нові демо треки. Влітку 2010 року група змінила свою назву на ForceOut, змінила стиль музики і тематику пісень. В кінці літа 2010 Захара покинув групу і на його місце прийшов Андрій Готяш. В червні 2011-го вокалістка покинула гурт.
Влітку 2012 гурт записує у студії повноформатний альбом, у той же час шукає видавця. Восени хлопці підписують контракт з Metal Scrap Records. І нарешті у квітні 2013 альбом виходить на лейблі Total Metal Records (підрозділ MSR).


Якщо Ви справді бажаєте підтримати українське - після прослуховування, якщо музика вам сподобалась, придбайте ліцензійний диск. Підтримаймо вітчизняних виконавців!


Срібний реліз (на рейтинг впливає 50% завантаженого)
 Трекер:    Зареєстрований   

Завантажити / скачати українську музику



відео для новачків



 Зареєстрований:   2013-07-19 12:21
 Розмір:   296 MB 
 Оцінка музики:   9.8/10 (Голосів: 4)
   
Kitler 
Модератор програмного забезпечення


З нами з: 22.04.11
Востаннє: 03.12.16
Повідомлень: 591

2013-07-19 12:23  
Oleksa9 
Поважний учасник


З нами з: 17.05.12
Востаннє: 03.12.16
Повідомлень: 225

2013-07-26 20:08  
Нічогенько так зіграно Rolleyes (2)
Forward! 
VIP


З нами з: 27.11.11
Востаннє: 03.12.16
Повідомлень: 425

2013-12-01 01:45  
Класний альбом. Мені дуже сподобався. Жаль, не пішов на їхній концерт майже місяць тому...
Ваш часовий пояс: GMT + 2 Години

Нова тема   Відповісти