Завантажити та скачати торренти українською


Заборонене царство / The Forbidden Kingdom (2008) 1080p 3xUkr/Eng | Sub Ukr/Eng

Нові коментарі

Нова тема   Відповісти
Автор Повідомлення
Anonymous 







2013-07-19 02:50  
Заборонене царство / The Forbidden Kingdom (2008) 1080p 3xUkr/Eng | Sub Ukr/Eng



Альтернативні постери





Жанр: фентезі, бойовик, мелодрама, пригодницький
Країна: США, Китай



Кінокомпанія: Relativity Media, Casey Silver Productions, China Film Co-Production Corporation, Huayi Brothers
Режисер: Роб Мінкоф / Rob Minkoff
Актори: Джекі Чан / Jackie Chan, Джет Лі / Jet Li, Майкл Ангарано / Michael Angarano, Лю Іфей / Liu Yifei, Колін Чоу / Collin Chou, Джекі Ву, Морган Бенуа / Morgan Benoit та інші

Сюжет:
Хлопець на ім'я Джейсон (Ангарано), який любить дивитись фільми про бойові мистецтва, знайомиться зі старим китайцем. У його ломбарді герой знаходить речі древнього китайського воїна, наділені магічною силою, і завдяки ним переноситься у минуле, у Древній Китай, де зустрічає двох вчителів кунг-фу, Лу Єна (Чан) та Мовчазного Монаха (Лі).


рейтинг MPAA: PG-13 - дітям до 13 років перегляд не бажаний
Вікова категорія: 12+

Тривалість: 01:44:26
Якість: 1080p
Відео:
кодек:
розмір кадру: 1920х800
бітрейт: 9623 кб/с

Аудіо # 1:
мова: українська - JRC Video
переклад: багатоголосий закадровий
Ролі озвучили: Олег Стальчук (Джет Лі / Мовчазний Монах), Володимир Терещук (Джекі Чан / Лу Єн), Дмитро Терещук і один жіночий
кодек: 5.1
бітрейт: 448 кб/с

Аудіо # 2:
мова: українська
переклад: багатоголосий закадровий
Ролі озвучили: Дмитро Гаврилов (Джет Лі / Мовчазний Монах), Володимир Терещук, Дмитро Терещук
кодек: 5.1
бітрейт: 448 кб/с

Аудіо # 3:
мова: українська
переклад: двоголосий закадровий
Ролі озвучили: Дмитро Завадський і Ніна Касторф
кодек: 5.1
бітрейт: 448 кб/с

Аудіо # 4:
мова: англійська
переклад: оригінал
кодек: 5.1
бітрейт: 640 кб/с

Субтитри:
мова: українська
тип: програмні (м'які)
формат: *.srt

Субтитри:
мова: англійська
тип: програмні (м'які)
формат: *.srt

Збережено оригінальні розділи, як на Blu-ray.
MediaInfo та
[info]: frame I:1389 Avg QP:17.89 size:272911
[info]: frame P:50096 Avg QP:18.90 size: 75177
[info]: frame B:98755 Avg QP:21.79 size: 34299
===================================================================================
General
Unique ID : 248613966660461879540586013349383451144 (0xBB094EECA54EDB8E8C0B7AB65EF33208)
Complete name : The.Forbidden.Kingdom.2008..1080p.3xUkr.Eng.mkv
Format : Matroska
Format version : Version 4 / Version 2
File size : 8.46 GiB
Duration : 1h 44mn
Overall bit rate : 11.6 Mbps
Movie name : Заборонене царство / The Forbidden Kingdom / Запретное царство (2008)
Encoded date : UTC 2013-07-18 19:35:35
Writing application : mkvmerge v6.3.0 ('You can't stop me!') built on Jun 28 2013 20:09:41
Writing library : libebml v1.3.0 + libmatroska v1.4.0

Video
ID : 1
Format : AVC
Format/Info : Advanced Video Codec
Format profile : [email protected]
Format settings, CABAC : Yes
Format settings, ReFrames : 5 frames
Codec ID : V_MPEG4/ISO/AVC
Duration : 1h 44mn
Bit rate : 9 623 Kbps
Width : 1 920 pixels
Height : 800 pixels
Display aspect ratio : 2.40:1
Frame rate mode : Constant
Frame rate : 23.976 fps
Color space : YUV
Chroma subsampling : 4:2:0
Bit depth : 8 bits
Scan type : Progressive
Bits/(Pixel*Frame) : 0.261
Stream size : 6.85 GiB (81%)
Title : Заборонене царство / The Forbidden Kingdom / Запретное царство (2008) [K.A.F.]
Writing library : core 133 r2334 a3ac64b
Encoding settings : cabac=1 / ref=5 / deblock=1:-2:-2 / analyse=0x3:0x133 / me=tesa / subme=11 / psy=1 / psy_rd=1.00:0.04 / mixed_ref=1 / me_range=32 / chroma_me=1 / trellis=2 / 8x8dct=1 / cqm=0 / deadzone=21,11 / fast_pskip=0 / chroma_qp_offset=-3 / threads=12 / lookahead_threads=1 / sliced_threads=0 / nr=0 / decimate=0 / interlaced=0 / bluray_compat=0 / constrained_intra=0 / bframes=4 / b_pyramid=2 / b_adapt=2 / b_bias=0 / direct=3 / weightb=1 / open_gop=0 / weightp=2 / keyint=240 / keyint_min=23 / scenecut=40 / intra_refresh=0 / rc=2pass / mbtree=0 / bitrate=9623 / ratetol=1.0 / qcomp=0.60 / qpmin=0 / qpmax=69 / qpstep=4 / cplxblur=20.0 / qblur=0.5 / ip_ratio=1.40 / pb_ratio=1.30 / aq=1:1.00
Language : English
Default : Yes
Forced : No

Audio #1
ID : 2
Format : AC-3
Format/Info : Audio Coding 3
Mode extension : CM (complete main)
Format settings, Endianness : Big
Codec ID : A_AC3
Duration : 1h 44mn
Bit rate mode : Constant
Bit rate : 448 Kbps
Channel(s) : 6 channels
Channel positions : Front: L C R, Side: L R, LFE
Sampling rate : 48.0 KHz
Bit depth : 16 bits
Compression mode : Lossy
Stream size : 335 MiB (4%)
Title : MVO [DVD-JRC Video] 5.1 448 Kbps [Hurtom-wrongfunction]
Language : Ukrainian
Default : Yes
Forced : No

Audio #2
ID : 3
Format : AC-3
Format/Info : Audio Coding 3
Mode extension : CM (complete main)
Format settings, Endianness : Big
Codec ID : A_AC3
Duration : 1h 44mn
Bit rate mode : Constant
Bit rate : 448 Kbps
Channel(s) : 6 channels
Channel positions : Front: L C R, Side: L R, LFE
Sampling rate : 48.0 KHz
Bit depth : 16 bits
Compression mode : Lossy
Stream size : 335 MiB (4%)
Title : MVO [ICTV] 5.1 448 Kbps [Hurtom-wrongfunction]
Language : Ukrainian
Default : No
Forced : No

Audio #3
ID : 4
Format : AC-3
Format/Info : Audio Coding 3
Mode extension : CM (complete main)
Format settings, Endianness : Big
Codec ID : A_AC3
Duration : 1h 44mn
Bit rate mode : Constant
Bit rate : 448 Kbps
Channel(s) : 6 channels
Channel positions : Front: L C R, Side: L R, LFE
Sampling rate : 48.0 KHz
Bit depth : 16 bits
Compression mode : Lossy
Stream size : 335 MiB (4%)
Title : DVO [1+1] 5.1 448 Kbps [Hurtom-wrongfunction]
Language : Ukrainian
Default : No
Forced : No

Audio #4
ID : 5
Format : AC-3
Format/Info : Audio Coding 3
Mode extension : CM (complete main)
Format settings, Endianness : Big
Codec ID : A_AC3
Duration : 1h 44mn
Bit rate mode : Constant
Bit rate : 640 Kbps
Channel(s) : 6 channels
Channel positions : Front: L C R, Side: L R, LFE
Sampling rate : 48.0 KHz
Bit depth : 16 bits
Compression mode : Lossy
Stream size : 478 MiB (6%)
Title : Original 5.1 640 kbps
Language : English
Default : No
Forced : No

Text #1
ID : 6
Format : UTF-8
Codec ID : S_TEXT/UTF8
Codec ID/Info : UTF-8 Plain Text
Title : Ukr full
Language : English
Default : No
Forced : No

Text #2
ID : 7
Format : UTF-8
Codec ID : S_TEXT/UTF8
Codec ID/Info : UTF-8 Plain Text
Title : Eng full
Language : English
Default : No
Forced : No

Menu
00:00:00.000 : en:Opening
00:08:36.432 : en:Discoveries
00:15:04.903 : en:The Monkey King
00:19:13.152 : en:Escape
00:27:29.856 : en:Jet And Jackie
00:36:53.585 : en:Two Tigers
00:45:04.660 : en:Don't Forget
00:50:27.524 : en:The Monastary
00:54:06.952 : en:Combat
00:59:50.670 : en:Monkey King's Turn
01:04:47.258 : en:Back In the USA
01:09:44.597 : en:Credits
01:14:07.651 : en:"What's wrong?"
01:21:14.536 : en:On the Job
01:28:23.423 : en:End of Shift
01:32:19.158 : en:Home


Джерела та подяки: ріп відео, оригінальні звук та субтитри - K.A.F. (рутор); українські доріжки - wrongfunction - зведення, abodnya (ICTV), robotron005 (1+1) - запис з ТБ; українські субтитри - з релізу wrongfunction (всі - Гуртом).

Особиста оцінка: 8 - мені сподобалося

ЗАЛИШАЙТЕСЬ ЯКОМОГА ДОВШЕ НА РОЗДАЧІ!

СКАЧАВ САМ - ДАЙ СКАЧАТИ ІНШИМ


 Трекер:    Зареєстрований   

Завантажити / скачати фільм українською



відео для новачків



 Зареєстрований:   2013-07-19 03:05
 Розмір:   8.46 GB 
 Оцінка фільму:   5.4/10 (Голосів: 20)
   
Ваш часовий пояс: GMT + 2 Години

Нова тема   Відповісти