Завантажити та скачати торренти українською


Сокира Перуна - Братство Сумління (2013) [FLAC] | RAC

Нові коментарі

Нова тема   Відповісти
Автор Повідомлення
Wolf1488 
VIP


З нами з: 20.10.09
Востаннє: 04.12.16
Повідомлень: 429

2013-07-18 23:41  
Сокира Перуна - Братство Сумління (2013) [FLAC] | RAC

Сокира Перуна - Братство Сумління (2013) [FLAC] | RAC


Стиль: RAC
Країна, місто: Україна, Шостка
Сайти: Офіційний сайт
Видавець: SvaStone
Виконавці:
Арсеній Білодуб - вокал
Юрій "Борода" Харенко - гітари, перкусія
Андрій Костюк - гітари, бас
Ukko Karjalainen - барабани
Griffin - волинка
Saturious - сопілка, сопілка-бас, чаклунський спів
Пісні:
    01. Хто Ти
    02. Повернення N
    03. Не Бійся
    04. Сокіл
    05. Перунів Вогонь
    06. 14
    07. Білий Черемош
    08. Під Знаком Лева
    09. 17 Серпня
    10. Довбуш
    11. Братство Сумління
скани












EAC

Exact Audio Copy V1.0 beta 3 from 29. August 2011

EAC extraction logfile from 18. July 2013, 21:06

Unknown Artist / Unknown Title

Used drive : HL-DT-STDVDRAM GT30N Adapter: 1 ID: 0

Read mode : Secure
Utilize accurate stream : Yes
Defeat audio cache : Yes
Make use of C2 pointers : No

Read offset correction : 103
Overread into Lead-In and Lead-Out : No
Fill up missing offset samples with silence : Yes
Delete leading and trailing silent blocks : No
Null samples used in CRC calculations : Yes
Used interface : Native Win32 interface for Win NT & 2000
Gap handling : Appended to previous track

Used output format : User Defined Encoder
Selected bitrate : 128 kBit/s
Quality : High
Add ID3 tag : No
Command line compressor : C:\Program Files (x86)\Exact Audio Copy\Flac\flac.exe
Additional command line options : -V -8 -T "Genre=%genre%" -T "Artist=%artist%" -T "Title=%title%" -T "Album=%albumtitle%" -T "Date=%year%" -T "Tracknumber=%tracknr%" -T "Comment=%comment%" %source%

TOC of the extracted CD

Track | Start | Length | Start sector | End sector
---------------------------------------------------------
1 | 0:00.00 | 2:59.56 | 0 | 13480
2 | 2:59.56 | 4:36.37 | 13481 | 34217
3 | 7:36.18 | 3:30.70 | 34218 | 50037
4 | 11:07.13 | 5:26.71 | 50038 | 74558
5 | 16:34.09 | 3:52.12 | 74559 | 91970
6 | 20:26.21 | 5:10.54 | 91971 | 115274
7 | 25:37.00 | 4:28.61 | 115275 | 135435
8 | 30:05.61 | 5:09.00 | 135436 | 158610
9 | 35:14.61 | 6:09.15 | 158611 | 186300
10 | 41:24.01 | 5:25.22 | 186301 | 210697
11 | 46:49.23 | 5:40.70 | 210698 | 236267

Track 1

Filename D:\СП\01 Хто ти.wav

Pre-gap length 0:00:02.00

Peak level 99.8 %
Extraction speed 1.1 X
Track quality 100.0 %
Test CRC A8C0B692
Copy CRC A8C0B692
Copy OK

Track 2

Filename D:\СП\02 Повернення N.wav

Pre-gap length 0:00:02.00

Peak level 99.8 %
Extraction speed 1.4 X
Track quality 100.0 %
Test CRC FAC1C0D0
Copy CRC FAC1C0D0
Copy OK

Track 3

Filename D:\СП\03 Не бійся.wav

Pre-gap length 0:00:02.00

Peak level 99.8 %
Extraction speed 1.4 X
Track quality 100.0 %
Test CRC 9EDF5EB5
Copy CRC 9EDF5EB5
Copy OK

Track 4

Filename D:\СП\04 Сокіл.wav

Pre-gap length 0:00:02.00

Peak level 99.8 %
Extraction speed 1.7 X
Track quality 100.0 %
Test CRC 87087CE5
Copy CRC 87087CE5
Copy OK

Track 5

Filename D:\СП\05 Перунів вогонь.wav

Pre-gap length 0:00:02.00

Peak level 99.8 %
Extraction speed 1.7 X
Track quality 100.0 %
Test CRC F5F07C36
Copy CRC F5F07C36
Copy OK

Track 6

Filename D:\СП\06 14.wav

Pre-gap length 0:00:02.00

Peak level 99.8 %
Extraction speed 1.7 X
Track quality 99.9 %
Test CRC 24AEB98A
Copy CRC 24AEB98A
Copy OK

Track 7

Filename D:\СП\07 Білий черемош.wav

Pre-gap length 0:00:02.00

Peak level 99.8 %
Extraction speed 2.0 X
Track quality 100.0 %
Test CRC 97BE31C5
Copy CRC 97BE31C5
Copy OK

Track 8

Filename D:\СП\08 Під знаком лева.wav

Pre-gap length 0:00:02.00

Peak level 99.8 %
Extraction speed 2.1 X
Track quality 100.0 %
Test CRC 2E17E681
Copy CRC 2E17E681
Copy OK

Track 9

Filename D:\СП\09 17 серпня.wav

Pre-gap length 0:00:02.00

Peak level 99.8 %
Extraction speed 2.1 X
Track quality 99.9 %
Test CRC 8261C52A
Copy CRC 8261C52A
Copy OK

Track 10

Filename D:\СП\10 Довбуш.wav

Pre-gap length 0:00:02.00

Peak level 99.8 %
Extraction speed 2.4 X
Track quality 100.0 %
Test CRC 93B5D157
Copy CRC 93B5D157
Copy OK

Track 11

Filename D:\СП\11 Братство сумління.wav

Pre-gap length 0:00:02.00

Peak level 99.7 %
Extraction speed 2.2 X
Track quality 99.9 %
Test CRC 055D987C
Copy CRC 055D987C
Copy OK

No errors occurred

End of status report

==== Log checksum 3D97861FAB389636F41CE055DE925BE781B1DA68DB04E4B50F63993158176A48 ====
Тривалість: 00:52:10
Мова: українська
Аудіо-кодек: FLAC
Бітрейт: 952 - 1049 кб/с
Джерело: власний ріп

Також на Толоці Ви можете знайти:
Сокира Перуна - Братство Сумління [MP3 320 кб/с]
Також на Толоці Ви можете знайти:
Сокира Перуна - Дискографія (10 альбомів) (2000 -2010) [MP3]
Також на Толоці Ви можете знайти:
Сокира Перуна - Слово (2010) [MP3 320 кб/с]
Також на Толоці Ви можете знайти: Сокира Перуна - Колекція (6 альбомів) (2000-2010) [FLAC]


Якщо Ви справді бажаєте підтримати українське - після прослуховування, якщо музика вам сподобалась, придбайте ліцензійний диск. Підтримаймо вітчизняних виконавців!


Срібний реліз (на рейтинг впливає 50% завантаженого)
 Трекер:    Зареєстрований   

Завантажити / скачати українську музику



відео для новачків



 Зареєстрований:   2013-07-18 23:41
 Розмір:   384 MB 
 Оцінка музики:   10/10 (Голосів: 14)
   
musicfan 
Модератор музики


З нами з: 27.01.09
Востаннє: 02.12.16
Повідомлень: 893

2013-07-19 08:34  
Додав скани буклету та обкладинок в тему релізу
evilmetaldon 
Свій


З нами з: 29.10.12
Востаннє: 29.06.14
Повідомлень: 56

2013-08-07 12:41  
А хіба не правильно "Братерство Сумління"?
dj-liam 
Частий відвідувач


З нами з: 30.11.12
Востаннє: 04.12.16
Повідомлень: 38

2013-08-09 14:49  
чудовий реліз
Ваш часовий пояс: GMT + 2 Години

Нова тема   Відповісти