Завантажити та скачати торренти українською


Викидайли / Knockaround Guys (2001) 1080p Ukr/Eng | Sub Eng

Нові коментарі

Нова тема   Відповісти
Автор Повідомлення
Anonymous 







2013-07-18 16:03  
Викидайли / Knockaround Guys (2001) 1080p Ukr/Eng | Sub Eng



Альтернативні українські постери





Жанр: трилер, драма, кримінальний
Країна: США



Кінокомпанія: New Line Cinema, Lawrence Bender Productions
Режисер: Брайан Коппельман / Brian Koppelman, Девід Левін / David Levien
Актори: Баррі Пеппер / Barry Pepper, Він Дізель / Vin Diesel, Сет Грін / Seth Green, Джон Малкович / John Malkovich, Денніс Хоппер / Dennis Hopper, Ендрю Деволі / Andrew Davoli, Артур Дж. Наскарелла / Arthur J. Nascarella, Том Нунен / Tom Noonan, Ніколас Паско / Nicholas Pasco, Шоун Дойл / Shawn Doyle, Кевін Гейдж / Kevin Gage та інші

Сюжет:
Він Дізель, Барі Пепер, Денніс Хопер, Джон Малкович і Сет Грін у забійному мафіозному бойовику "Викидайли". Майстерно закручений сюжет, динаміка, розжарення пристрастей, колоритні персонажі й несподівана кінцівка...

Для сина боса мафії помилки й почуття - непрощенна розкіш. Метті довелося дорого заплатити, щоб зрозуміти це. Після довгих пошуків "законної" роботи він звертається до батька, і той дає йому шанс...

Друг дитинства Метті, кокаїніст Марблс, губить сумку із грішми. Гроші попадають до двох обкурених тинейджерів, що живуть маленькому західному містечку. Справи кепські! На допомогу Метті приходять його старі друзі, один із яких - Тейлор - розробляє план активних дій по поверненню втрачених коштів.

Але містечко контролює нечистий на руку шериф і його помічник, і шанси друзів повернути гроші тануть на очах. Дядько Тедді приїжджає в місто, щоб врегулювати ситуацію й пояснити Метті раз і назавжди, що означає "бути членом родини".


рейтинг MPAA: R - особам до 17 років обов'язкова присутність батьків або дорослого опікуна
Вікова категорія: 16+

Тривалість: 01:31:36
Якість: 1080p
Відео:
кодек:
розмір кадру: 1920x802
бітрейт: 9000 кб/с

Аудіо # 1:
мова: українська
переклад: багатоголосий закадровий
Ролі озвучили: Анатолій Зіновенко (Джон Малкович / Teddy Deserve), Михайло Тишин (Він Дізель / Taylor Reese) і Людмила Ардельян
кодек: 5.1
бітрейт: 384 кб/с

Аудіо # 2:
мова: англійська
переклад: оригінал
кодек: 5.1
бітрейт: 1510 кб/с

Субтитри:
мова: англійська
тип: програмні (м'які)
формат: *.srt

Збережено оригінальні розділи, як на Blu-ray.
MediaInfo
General
Unique ID : 230523773186223672080382709257265413427 (0xAD6D43864017B69CAB9AE0F875CEFD33)
Complete name : Knockaround.Guys.2001..1080p.Ukr.Eng.mkv
Format : Matroska
Format version : Version 4 / Version 2
File size : 6.97 GiB
Duration : 1h 31mn
Overall bit rate : 10.9 Mbps
Movie name : Викидайли / Knockaround Guys / Вышибалы (2001)
Encoded date : UTC 2013-07-18 10:32:27
Writing application : mkvmerge v6.3.0 ('You can't stop me!') built on Jun 28 2013 20:09:41
Writing library : libebml v1.3.0 + libmatroska v1.4.0

Video
ID : 1
Format : AVC
Format/Info : Advanced Video Codec
Format profile : [email protected]
Format settings, CABAC : Yes
Format settings, ReFrames : 4 frames
Codec ID : V_MPEG4/ISO/AVC
Duration : 1h 31mn
Bit rate : 9 000 Kbps
Width : 1 920 pixels
Height : 802 pixels
Display aspect ratio : 2.40:1
Frame rate mode : Constant
Frame rate : 23.976 fps
Color space : YUV
Chroma subsampling : 4:2:0
Bit depth : 8 bits
Scan type : Progressive
Bits/(Pixel*Frame) : 0.244
Stream size : 5.62 GiB (81%)
Title : Викидайли / Knockaround Guys / Вышибалы (2001) [MediaClub-kaspr]
Writing library : core 130 r2273 b3065e6
Encoding settings : cabac=1 / ref=4 / deblock=1:-3:-3 / analyse=0x3:0x133 / me=umh / subme=11 / psy=1 / psy_rd=1.00:0.20 / mixed_ref=1 / me_range=32 / chroma_me=1 / trellis=2 / 8x8dct=1 / cqm=0 / deadzone=21,11 / fast_pskip=0 / chroma_qp_offset=-3 / threads=12 / lookahead_threads=2 / sliced_threads=0 / nr=0 / decimate=0 / interlaced=0 / bluray_compat=0 / constrained_intra=0 / bframes=8 / b_pyramid=2 / b_adapt=2 / b_bias=0 / direct=3 / weightb=1 / open_gop=0 / weightp=2 / keyint=250 / keyint_min=23 / scenecut=40 / intra_refresh=0 / rc=2pass / mbtree=0 / bitrate=9000 / ratetol=1.0 / qcomp=0.60 / qpmin=0 / qpmax=69 / qpstep=4 / cplxblur=20.0 / qblur=0.5 / ip_ratio=1.40 / pb_ratio=1.30 / aq=1:1.00
Language : English
Default : Yes
Forced : Yes

Audio #1
ID : 2
Format : AC-3
Format/Info : Audio Coding 3
Mode extension : CM (complete main)
Format settings, Endianness : Big
Codec ID : A_AC3
Duration : 1h 31mn
Bit rate mode : Constant
Bit rate : 384 Kbps
Channel(s) : 6 channels
Channel positions : Front: L C R, Side: L R, LFE
Sampling rate : 48.0 KHz
Bit depth : 16 bits
Compression mode : Lossy
Stream size : 252 MiB (4%)
Title : MVO [NTN] 5.1 384 Kbps [Hurtom-MasterYura]
Language : Ukrainian
Default : Yes
Forced : No

Audio #2
ID : 3
Format :
Format/Info : Digital Theater Systems
Mode : 16
Format settings, Endianness : Big
Codec ID : A_DTS
Duration : 1h 31mn
Bit rate mode : Constant
Bit rate : 1 509 Kbps
Channel(s) : 6 channels
Channel positions : Front: L C R, Side: L R, LFE
Sampling rate : 48.0 KHz
Bit depth : 24 bits
Compression mode : Lossy
Stream size : 989 MiB (14%)
Title : Original 5.1 1510 Kbps
Language : English
Default : No
Forced : No

Text
ID : 4
Format : UTF-8
Codec ID : S_TEXT/UTF8
Codec ID/Info : UTF-8 Plain Text
Title : Eng full
Language : English
Default : No
Forced : No

Menu
00:00:00.000 : en:Chapter 01
00:05:50.808 : en:Chapter 02
00:09:27.192 : en:Chapter 03
00:12:33.086 : en:Chapter 04
00:16:00.167 : en:Chapter 05
00:20:17.508 : en:Chapter 06
00:24:56.869 : en:Chapter 07
00:30:25.073 : en:Chapter 08
00:34:46.876 : en:Chapter 09
00:39:20.817 : en:Chapter 10
00:43:58.511 : en:Chapter 11
00:48:36.622 : en:Chapter 12
00:52:17.843 : en:Chapter 13
00:55:38.877 : en:Chapter 14
01:01:34.232 : en:Chapter 15
01:05:22.377 : en:Chapter 16
01:10:06.327 : en:Chapter 17
01:15:02.372 : en:Chapter 18
01:18:10.144 : en:Chapter 19
01:23:14.531 : en:Chapter 20
01:27:21.194 : en:Chapter 21


Джерела та подяки: ріп відео, оригінальні звук та субтитри, - kaspr (MediaClub); українська доріжка - MasterYura - зведення, SweetN - запис з ТБ; українські постери - dr_stas, thefir (всі - Гуртом).

ЗАЛИШАЙТЕСЬ ЯКОМОГА ДОВШЕ НА РОЗДАЧІ!

СКАЧАВ САМ - ДАЙ СКАЧАТИ ІНШИМ


Срібний реліз (на рейтинг впливає 50% завантаженого)
 Трекер:    Зареєстрований   

Завантажити / скачати фільм українською



відео для новачків



 Зареєстрований:   2013-07-18 16:03
 Розмір:   6.97 GB 
 Оцінка фільму:   2.9/10 (Голосів: 13)
   
Інші релізи
   Викидайли / Knockaround Guys (2001) 720p Ukr/Eng MasterYura  1 / 0   4.62 GB   2010-09-19 18:09 
   Викидайли / Knockaround Guys (2001) Ukr/Eng MasterYura  0 / 3   1.66 GB   2010-09-19 17:52 
yuranako 
VIP


З нами з: 03.11.10
Востаннє: 04.12.16
Повідомлень: 1139

2013-07-18 17:21  
igor911 написано:
Денніс Хоппер / Dennis Hopper

Фільмографія цього актора теж є - http://toloka.to/t42181

Ваш часовий пояс: GMT + 2 Години

Нова тема   Відповісти