Завантажити та скачати торренти українською


Повелитель ілюзій / Lord of Illusions (1995) 720p Ukr/Eng

Нові коментарі

Нова тема   Відповісти
Автор Повідомлення
bodia87 
Відео Гуртом - фільмокрай
Відео Гуртом - фільмокрай


З нами з: 24.01.09
Востаннє: 11.12.16
Повідомлень: 468

2013-07-16 16:57  
Повелитель ілюзій / Lord of Illusions (1995) 720p Ukr/Eng

Повелитель ілюзій / Lord of Illusions (1995) 720p Ukr/Eng


Жанр: жахи, містика, трилер
Країна: США



Кінокомпанія:
Режисер: Клайв Баркер
Актори: Скотт Бакула, Кевін Дж. О'Коннор, Фамке Янссен, Даніель фон Барген, Шейла Таузі, Вейн Грейс, Джозеф Летімор

Сюжет:
Існує два магічних світи:
Перший - феєрична парафія фокусників-ілюзіоністів.
Другий - таємна територія, де магія стає страшною реальністю, у ньому людина має силу демона а сама смерть є ілюзією.

Справу яку розслідує приватний детектив Гаррі, набирає жахливого характеру, після того як стає відомо що з нею пов'язаний всесвітньо відомий маг Філіп Сван...

Тривалість: 01:44:22
Якість:
Відео:
кодек:
розмір кадру: 1280 х 720
бітрейт: 2471 кб/с
CRF: 20

Аудіо # 1:
мова: українська
переклад: двоголосий закадровий
кодек: 2.0
бітрейт: 192 кб/с

Аудіо # 2:
мова: англійська
переклад: оригінал
кодек: 2.0
бітрейт: 192 кб/с
MediaInfo
General
Unique ID : 188374196738172736018417268729236403404 (0x8DB78CF5BF1A458590F838269B0BB4CC)
Complete name : F:\Release\Lord Of Illusions (1995) 720p [ukr.eng] Hurtom.mkv
Format : Matroska
Format version : Version 4 / Version 2
File size : 2.12 GiB
Duration : 1h 44mn
Overall bit rate : 2 913 Kbps
Encoded date : UTC 2013-07-16 07:37:40
Writing application : mkvmerge v6.2.0 ('Promised Land') built on Apr 28 2013 12:22:01
Writing library : libebml v1.3.0 + libmatroska v1.4.0

Video
ID : 1
Format : AVC
Format/Info : Advanced Video Codec
Format profile : [email protected]
Format settings, CABAC : Yes
Format settings, ReFrames : 8 frames
Codec ID : V_MPEG4/ISO/AVC
Duration : 1h 44mn
Bit rate : 2 471 Kbps
Width : 1 280 pixels
Height : 720 pixels
Display aspect ratio : 16:9
Frame rate mode : Constant
Frame rate : 25.000 fps
Color space : YUV
Chroma subsampling : 4:2:0
Bit depth : 8 bits
Scan type : Progressive
Bits/(Pixel*Frame) : 0.107
Stream size : 1.80 GiB (85%)
Writing library : core 128 r2216 198a7ea
Encoding settings : cabac=1 / ref=8 / deblock=1:0:0 / analyse=0x3:0x113 / me=umh / subme=10 / psy=1 / psy_rd=1.00:0.15 / mixed_ref=1 / me_range=32 / chroma_me=1 / trellis=2 / 8x8dct=1 / cqm=0 / deadzone=21,11 / fast_pskip=1 / chroma_qp_offset=-3 / threads=6 / lookahead_threads=1 / sliced_threads=0 / nr=0 / decimate=1 / interlaced=0 / bluray_compat=0 / constrained_intra=0 / bframes=3 / b_pyramid=2 / b_adapt=2 / b_bias=0 / direct=1 / weightb=1 / open_gop=0 / weightp=2 / keyint=250 / keyint_min=25 / scenecut=40 / intra_refresh=0 / rc_lookahead=40 / rc=crf / mbtree=1 / crf=20.0 / qcomp=0.60 / qpmin=0 / qpmax=69 / qpstep=4 / vbv_maxrate=24000 / vbv_bufsize=24000 / crf_max=0.0 / nal_hrd=none / ip_ratio=1.40 / aq=1:1.00
Default : Yes
Forced : No

Audio #1
ID : 2
Format : AC-3
Format/Info : Audio Coding 3
Mode extension : CM (complete main)
Format settings, Endianness : Big
Codec ID : A_AC3
Duration : 1h 44mn
Bit rate mode : Constant
Bit rate : 192 Kbps
Channel(s) : 2 channels
Channel positions : Front: L R
Sampling rate : 48.0 KHz
Bit depth : 16 bits
Compression mode : Lossy
Stream size : 143 MiB (7%)
Title : Ukr for Hurtom.com [2+2]
Language : Ukrainian
Default : Yes
Forced : No

Audio #2
ID : 3
Format : AC-3
Format/Info : Audio Coding 3
Mode extension : CM (complete main)
Format settings, Endianness : Big
Codec ID : A_AC3
Duration : 1h 44mn
Bit rate mode : Constant
Bit rate : 192 Kbps
Channel(s) : 2 channels
Channel positions : Front: L R
Sampling rate : 48.0 KHz
Bit depth : 16 bits
Compression mode : Lossy
Stream size : 143 MiB (7%)
Language : English
Default : No
Forced : No
Скріншоти








Джерело:


Срібний реліз (на рейтинг впливає 50% завантаженого)
 Трекер:    Зареєстрований   

Завантажити / скачати фільм українською



відео для новачків



 Зареєстрований:   2013-07-16 16:57
 Розмір:   2.12 GB 
 Оцінка фільму:   8/10 (Голосів: 1)
   
Ваш часовий пояс: GMT + 2 Години

Нова тема   Відповісти