Завантажити та скачати торренти українською


Люди честі / Men of Honor (2000) 1080p Ukr/Eng | Sub Eng

Нові коментарі

Нова тема   Відповісти
Автор Повідомлення
Anonymous 







2013-07-16 15:29  
Люди честі / Men of Honor (2000) 1080p Ukr/Eng | Sub Eng



Жанр: драма, біографічний
Країна: США



Кінокомпанія: Fox 2000 Pictures, State Street Pictures
Режисер: Джордж Тіллман мол. / George Tillman Jr.
Актори: Роберт Де Ніро / Robert De Niro, К'юба Ґудінґ мол. / Cuba Gooding Jr., Шарліз Терон / Charlize Theron, Онжаню Елліс / Aunjanue Ellis, Хел Холбрук / Hal Holbrook, Майкл Рапапорт / Michael Rapaport, Пауерс Бут / Powers Boothe, Девід Кіт / David Keith, Холт МакКеллані / Holt McCallany, Девід Конрад / David Conrad, Джошуа Леонард / Joshua Leonard, Карл Ламблі / Carl Lumbly

Сюжет:
Фільм, відомий також під назвою «Військовий водолаз», заснований на реальних подіях з життя легендарного водолаза Карла Брашіра. Його наставник і старший офіцер Біл Сандей, переконаний, що неграм нема чого робити на флоті, і жорстокими і нелюдськими способами знущається та постійно «обламує» амбіційного новачка.
Однак йому це не вдається, більше того, незабаром він починає відчувати симпатію до цього надзвичайно впертого хлопця, який швидше загине, аніж покаже свою слабкість. Разом вони намагаються чинити опір бюрократам з командування ВМФ, яких не влаштовує колір шкіри героя.
Карл завжди зголошується добровольцем на виконання найнебезпечніших секретних спецоперацій, пов'язаних з підвищеним ризиком для життя. Однак доля приготувала йому куди страшніше випробування, подолати яке здатен тільки справжній герой.


рейтинг MPAA: R - особам до 17 років обов'язкова присутність батьків або дорослого опікуна
Вікова категорія: 12+

Тривалість: 02:08:47
Якість: 1080p
Відео:
кодек:
розмір кадру: 1916x820
бітрейт: 8502 кб/с

Аудіо # 1:
мова: українська
переклад: двоголосий закадровий
кодек: 5.1
бітрейт: 448 кб/с

Аудіо # 2:
мова: англійська
переклад: оригінал
кодек: 5.1
бітрейт: 448 кб/с

Субтитри:
мова: англійська
тип: програмні (м'які)
формат: *.srt

Збережено оригінальні розділи, як на Blu-ray.
MediaInfo та
[info]: frame I:1656 Avg QP:19.18 size:115474
[info]: frame P:34981 Avg QP:20.12 size: 68498
[info]: frame B:148649 Avg QP:20.79 size: 39070
encoded 185286 frames, 3.47 fps, 8690.53 kb/s
===================================================================================
General
Unique ID : 251493413246638440286378466153795228907 (0xBD33DE9A18061C0B9AD26A5B433114EB)
Complete name : Men.of.Honor.2000..1080p.Ukr.Eng.mkv
Format : Matroska
Format version : Version 4 / Version 2
File size : 8.63 GiB
Duration : 2h 8mn
Overall bit rate : 9 589 Kbps
Movie name : Люди честі / Men of Honor / Военный ныряльщик (2000)
Encoded date : UTC 2013-07-16 08:01:17
Writing application : mkvmerge v6.3.0 ('You can't stop me!') built on Jun 28 2013 20:09:41
Writing library : libebml v1.3.0 + libmatroska v1.4.0

Video
ID : 1
Format : AVC
Format/Info : Advanced Video Codec
Format profile : [email protected]
Format settings, CABAC : Yes
Format settings, ReFrames : 4 frames
Codec ID : V_MPEG4/ISO/AVC
Duration : 2h 8mn
Bit rate : 8 502 Kbps
Width : 1 916 pixels
Height : 820 pixels
Display aspect ratio : 2.35:1
Frame rate mode : Constant
Frame rate : 23.976 fps
Color space : YUV
Chroma subsampling : 4:2:0
Bit depth : 8 bits
Scan type : Progressive
Bits/(Pixel*Frame) : 0.226
Stream size : 7.65 GiB (89%)
Title : Люди честі / Men of Honor / Военный ныряльщик (2000) [FREEISLAND-delia]
Writing library : core 130 r2273 b3065e6
Encoding settings : cabac=1 / ref=4 / deblock=1:-3:-3 / analyse=0x3:0x113 / me=umh / subme=10 / psy=1 / psy_rd=1.20:0.00 / mixed_ref=1 / me_range=64 / chroma_me=1 / trellis=2 / 8x8dct=1 / cqm=0 / deadzone=21,11 / fast_pskip=0 / chroma_qp_offset=-4 / threads=6 / lookahead_threads=2 / sliced_threads=0 / nr=0 / decimate=0 / interlaced=0 / bluray_compat=0 / constrained_intra=0 / bframes=7 / b_pyramid=2 / b_adapt=2 / b_bias=0 / direct=3 / weightb=1 / open_gop=0 / weightp=2 / keyint=800 / keyint_min=25 / scenecut=30 / intra_refresh=0 / rc_lookahead=30 / rc=crf / mbtree=0 / crf=20.0 / qcomp=0.75 / qpmin=0 / qpmax=40 / qpstep=4 / vbv_maxrate=65000 / vbv_bufsize=65000 / crf_max=0.0 / nal_hrd=none / ip_ratio=1.20 / pb_ratio=1.10 / aq=1:0.60
Language : English
Default : Yes
Forced : No
Color primaries : BT.709
Transfer characteristics : BT.709
Matrix coefficients : BT.709

Audio #1
ID : 2
Format : AC-3
Format/Info : Audio Coding 3
Mode extension : CM (complete main)
Format settings, Endianness : Big
Codec ID : A_AC3
Duration : 2h 8mn
Bit rate mode : Constant
Bit rate : 448 Kbps
Channel(s) : 6 channels
Channel positions : Front: L C R, Side: L R, LFE
Sampling rate : 48.0 KHz
Bit depth : 16 bits
Compression mode : Lossy
Stream size : 413 MiB (5%)
Title : DVO [2+2] 5.1 448 Kbps [Hurtom-Lan]
Language : Ukrainian
Default : Yes
Forced : No

Audio #2
ID : 3
Format : AC-3
Format/Info : Audio Coding 3
Mode extension : CM (complete main)
Format settings, Endianness : Big
Codec ID : A_AC3
Duration : 2h 8mn
Bit rate mode : Constant
Bit rate : 448 Kbps
Channel(s) : 6 channels
Channel positions : Front: L C R, Side: L R, LFE
Sampling rate : 48.0 KHz
Bit depth : 16 bits
Compression mode : Lossy
Stream size : 413 MiB (5%)
Title : Original
Language : English
Default : No
Forced : No

Text
ID : 4
Format : UTF-8
Codec ID : S_TEXT/UTF8
Codec ID/Info : UTF-8 Plain Text
Title : Eng full
Language : English
Default : No
Forced : No

Menu #1
00:00:00.000 : en:Opening Credits/"Don't End Up Like Me"
00:07:31.534 : en:Big Future in the U.S. Navy
00:14:51.599 : en:Master Chief Sunday
00:21:40.299 : en:Beware What You Wish For
00:27:09.670 : en:Welcoming Boatswain's Mate Brashear
00:36:03.286 : en:Passing the Test
00:42:32.550 : en:Salvage and Rescue
00:49:09.572 : en:Bad News
00:54:16.462 : en:The Bet
01:04:24.944 : en:Be The Best
01:10:44.365 : en:Against All Odds
01:19:32.017 : en:Happy New Year
01:25:00.721 : en:Missile Rescue
01:31:57.679 : en:Never Gonna Dive Again
01:41:48.311 : en:To Be A Master Diver
01:48:11.235 : en:Trial of Honor
01:55:17.744 : en:Twelve Steps
02:02:24.337 : en:End Credits


Джерела та подяки: ріп відео, оригінальні звук та субтитри - delia (FREEISLAND); українська доріжка - Lan - зведення, karvai0 - запис з ТБ (обоє - Гуртом).

Особиста оцінка: 8 - мені сподобалося

ЗАЛИШАЙТЕСЬ ЯКОМОГА ДОВШЕ НА РОЗДАЧІ!

СКАЧАВ САМ - ДАЙ СКАЧАТИ ІНШИМ


Срібний реліз (на рейтинг впливає 50% завантаженого)
 Трекер:    Зареєстрований   

Завантажити / скачати фільм українською



відео для новачків



 Зареєстрований:   2013-07-16 15:29
 Розмір:   8.63 GB 
 Оцінка фільму:   5.9/10 (Голосів: 25)
   
Інші релізи
   Люди честі / Men of Honor (2000) 720p Ukr/Eng | Sub Eng Загора  1 / 0   5.57 GB   2016-02-16 11:44 
   Люди честі / Men of Honor (2000) Ukr/Eng | Sub Eng Lan  5 / 1   2.59 GB   2011-09-26 10:35 
Ваш часовий пояс: GMT + 2 Години

Нова тема   Відповісти