Завантажити та скачати торренти українською


Тринадцятий поверх / The Thirteenth Floor (1999) 720p-mini Ukr/Eng | sub Eng

Нові коментарі

Нова тема   Відповісти
Автор Повідомлення
DеLight 
Відео Гуртом - фільмокрай
Відео Гуртом - фільмокрай


З нами з: 24.08.11
Востаннє: 17.11.16
Повідомлень: 663

2013-07-16 14:50  
Тринадцятий поверх / The Thirteenth Floor (1999) 720p-mini Ukr/Eng | sub Eng


Тринадцятий поверх / The Thirteenth Floor (1999) 720p-mini Ukr/Eng | sub Eng


Blu-ray Disc




Жанр: наукова фантастика, трилер
Країна: Німеччина, США





Кінокомпанія: Centropolis Film Productions
Режисер: Джозеф Руснак / Josef Rusnak
Актори: Крейґ Біерко / Craig Bierko, Ґретхен Мол / Gretchen Mol, Армін Мюллер-Шталь / Armin Mueller-Stahl, Вінсент Д’Онофріо / Vincent D’Onofrio, Денніс Гейсберт / Dennis Haysbert, Стівен Шуб / Steven Schub, Ширі Епплбі / Shiri Appleby, Боб Кленденін / Bob Clendenin та інші

Сюжет:
На тринадцятому поверсі комп’ютерної корпорації була розроблена досконала модель віртуальної реальності, створення якої привело за собою ланцюг таємничих вбивств. Розгадати загадку можна лише занурившись в інший вимір, де може бути відповідь на багато питань, а можливо - страшна нереальність...
Цікаві факти

» «Тринадцятий поверх» вийшов на екрани одночасно зі знаменитою «Матрицею» братів Вачовскі, але на її тлі виявився практично непоміченим.
» У 2000-му році картина номінувалася на премію «Сатурн» (Saturn Award) у категорії «кращий науково-фантастичний фільм».
» Стрічка знімалася в Лос-Анджелесі.
» Фільм є екранізацією роману американського письменника Деніела Френсіса Ґалоай (Daniel Francis Galouye, 1920-1976) «Сімулакрон-3» (Simulacron-3), який був перевиданий у Німеччині як «13-ий поверх» (The 13th Floor).
» Роман «Сімулакрон-3» був вперше опублікований у США в 1964 році і є одним з найперших літературних описів віртуальної реальності.
» У віртуальному 1937 р. Фуллер згадує першу світову війну. Однак в 1937 році, коли ще не було другої світової війни, перша світова війна називалася інакше - велика війна. Тим не менш, це можна вважати помилкою не творців фільму, а творців програми, що імітує Лос-Анджелес 1937 року. Ряд інших анахронізмів віртуального Лос-Анджелеса - наприклад, занадто нові гроші і патрульна машина - також можна сприймати як помилки програмування.

Тривалість: 01:40:30
Якість: 720p

Відео:
кодек:
розмір кадру: 1280 x 534
бітрейт: 2 199 кб/с

Аудіо #1:
мова: українська
переклад: багатоголосий закадровий
кодек: 2.0
бітрейт: 192 кб/с

Аудіо #2:
мова: англійська
переклад: оригінал
кодек: 5.1
бітрейт: 448 кб/с

Субтитри:
мова: англійська
тип: програмні (м'які)
формат: *.srt


Trailer


MediaInfo
Код:
General
Unique ID                      : 174663942026103739238132774138754664371 (0x83670D36A8AF0136B5C004204DAC87B3)
Complete name                  : D:\Torrents\The Thirteenth Floor (1999) 720p-mini [Ukr, Eng] [Hurtom].mkv
Format                         : Matroska
Format version                 : Version 4 / Version 2
File size                      : 1.99 GiB
Duration                       : 1h 40mn
Overall bit rate               : 2 839 Kbps
Movie name                     : The Thirteenth Floor (1999) 720p-mini [Ukr, Eng] [Hurtom] by Delight
Encoded date                   : UTC 2013-07-15 17:04:21
Writing application            : mkvmerge v6.3.0 ('You can't stop me!') built on Jun 27 2013 22:06:07
Writing library                : libebml v1.3.0 + libmatroska v1.4.0

Video
ID                             : 1
Format                         : AVC
Format/Info                    : Advanced Video Codec
Format profile                 : [email protected]
Format settings, CABAC         : Yes
Format settings, ReFrames      : 9 frames
Codec ID                       : V_MPEG4/ISO/AVC
Duration                       : 1h 40mn
Bit rate                       : 2 199 Kbps
Width                          : 1 280 pixels
Height                         : 534 pixels
Display aspect ratio           : 2.40:1
Frame rate mode                : Constant
Frame rate                     : 23.976 fps
Color space                    : YUV
Chroma subsampling             : 4:2:0
Bit depth                      : 8 bits
Scan type                      : Progressive
Bits/(Pixel*Frame)             : 0.134
Stream size                    : 1.50 GiB (75%)
Title                          : The Thirteenth Floor (1999) 720p-mini
Writing library                : core 129 r2230 1cffe9f
Encoding settings              : cabac=1 / ref=9 / deblock=1:-3:-2 / analyse=0x3:0x113 / me=umh / subme=10 / psy=1 / psy_rd=1.00:0.00 / mixed_ref=1 / me_range=32 / chroma_me=1 / trellis=2 / 8x8dct=1 / cqm=0 / deadzone=21,11 / fast_pskip=0 / chroma_qp_offset=-2 / threads=12 / lookahead_threads=2 / sliced_threads=0 / nr=0 / decimate=1 / interlaced=0 / bluray_compat=0 / constrained_intra=0 / bframes=9 / b_pyramid=2 / b_adapt=2 / b_bias=0 / direct=3 / weightb=1 / open_gop=0 / weightp=2 / keyint=240 / keyint_min=23 / scenecut=40 / intra_refresh=0 / rc=2pass / mbtree=0 / bitrate=2199 / ratetol=1.0 / qcomp=0.60 / qpmin=0 / qpmax=69 / qpstep=4 / cplxblur=20.0 / qblur=0.5 / ip_ratio=1.40 / pb_ratio=1.30 / aq=1:1.00
Language                       : English
Default                        : Yes
Forced                         : No
Color primaries                : BT.709
Transfer characteristics       : BT.709
Matrix coefficients            : BT.709

Audio #1
ID                             : 2
Format                         : AC-3
Format/Info                    : Audio Coding 3
Mode extension                 : CM (complete main)
Format settings, Endianness    : Big
Codec ID                       : A_AC3
Duration                       : 1h 40mn
Bit rate mode                  : Constant
Bit rate                       : 192 Kbps
Channel(s)                     : 2 channels
Channel positions              : Front: L R
Sampling rate                  : 48.0 KHz
Bit depth                      : 16 bits
Compression mode               : Lossy
Stream size                    : 138 MiB (7%)
Title                          : 2.0; 192 kbps; MVO [K1]
Language                       : Ukrainian
Default                        : Yes
Forced                         : No

Audio #2
ID                             : 3
Format                         : AC-3
Format/Info                    : Audio Coding 3
Mode extension                 : CM (complete main)
Format settings, Endianness    : Big
Codec ID                       : A_AC3
Duration                       : 1h 40mn
Bit rate mode                  : Constant
Bit rate                       : 448 Kbps
Channel(s)                     : 6 channels
Channel positions              : Front: L C R, Side: L R, LFE
Sampling rate                  : 48.0 KHz
Bit depth                      : 16 bits
Compression mode               : Lossy
Stream size                    : 322 MiB (16%)
Title                          : 5.1; 448 kbps; original
Language                       : English
Default                        : No
Forced                         : No

Text
ID                             : 4
Format                         : UTF-8
Codec ID                       : S_TEXT/UTF8
Codec ID/Info                  : UTF-8 Plain Text
Title                          : full
Language                       : English
Default                        : No
Forced                         : No

Скріншоти































Джерело: & [За запис з ТБ подяка xslim]
Особиста оцінка: хороша фантастика, захотілося ще раз i «Матрицю» переглянути.


Срібний реліз (на рейтинг впливає 50% завантаженого)
 Трекер:    Зареєстрований   

Завантажити / скачати фільм українською



відео для новачків



 Зареєстрований:   2013-07-16 14:50
 Розмір:   1.99 GB 
 Оцінка фільму:   9.6/10 (Голосів: 30)
   
Сонцеслав 
VIP


З нами з: 26.01.11
Востаннє: 21.11.16
Повідомлень: 385

2013-07-16 18:09  
Фантастичний кінофільм на тему вiртуальної реальностi. Стрiчка вийшла на екрани в один рiк з "Матрицею", де подано схожі ідеї. Але все таки Тринадцятий поверх - це інша кінострічка і заслуговує на окрему увагу. 
mmmman 
Частий відвідувач


З нами з: 01.08.09
Востаннє: 09.12.16
Повідомлень: 43

2013-12-19 21:44  
В якійсь мірі "Тринадцятий поверх" є вступом до серйозних історій про віртуальну реальність. Шкодую, що побачив цей фільм після "Матриці", враження були б набагато яскравішими.
артикул 
Новенький


З нами з: 31.12.08
Востаннє: 04.12.16
Повідомлень: 20

2014-06-02 15:38  
ще жививий?
y85m05d06 
Частий відвідувач


З нами з: 21.08.14
Востаннє: 09.12.16
Повідомлень: 25

2014-12-20 20:51  
фільм однозначно вартий уваги, з Матрицею звичайно не зрівняється але сюжет дуже оригінальний, цікаве кіно ..
ЕНЕЙ.12 
VIP


З нами з: 18.11.13
Востаннє: 10.12.16
Повідомлень: 411

2016-02-08 19:06  
Хто підкаже та порадить, де краще озвучення, в цьому релізі чи там де від нтн на 1,99GB?!

Додано через 4 хвилини 30 секунд:

Трішки помилився 1,89GB від MAKAPOHHIK...

DеLight 
Відео Гуртом - фільмокрай
Відео Гуртом - фільмокрай


З нами з: 24.08.11
Востаннє: 17.11.16
Повідомлень: 663

2016-02-08 19:12  
ЕНЕЙ.12
Тут запис новіший, а озвучки однакові. Ну і писали, що в тій доріжці є брак.

ЕНЕЙ.12 
VIP


З нами з: 18.11.13
Востаннє: 10.12.16
Повідомлень: 411

2016-02-08 21:28  
DеLight
А те що тут кодек: 2.0 а там: кодек: 5.1
бітрейт: 192 кб/с бітрейт: 448 кб/с

наскільки я розумію, то другий варіант краще)
Все дякую за інформацію! Почекаю, якщо ніхто там не відповість, то вантажитиму даний реліз.
І ще питання, у цій доріжці звук без "браку"?

igor911 
Відео Гуртом
Відео Гуртом


З нами з: 18.01.08
Востаннє: 10.12.16
Повідомлень: 5210

2016-02-08 22:38  
ЕНЕЙ.12, по ТБ транслюють взагалі моно, а 5.1 робили, заміняючи центральний канал оригінальної доріжки моно записом з ТБ, у якому знаходяться всі звуки. Такий метод називають псевдо-5.1, якісно зробити це важко (тут лише кілька чоловік робили це якісно, та й то вони давно вже не релізять), тому зараз всі роблять 2.0. Ця доріжка без браку.
ЕНЕЙ.12 
VIP


З нами з: 18.11.13
Востаннє: 10.12.16
Повідомлень: 411

2016-02-10 15:05  
Дякую igor911 за корисну інформацію, тепер знатиму що запис з ТБ чи 5.1 чи 2.0 не має суттєвої різниці, головне щоб не було браку (дефектів)!
Буду вантажити даний реліз, бо в темі іншого ніхто нічого не відповів)

Ваш часовий пояс: GMT + 2 Години

Нова тема   Відповісти