Завантажити та скачати торренти українською


На відстані удару / Striking Distance (1993) 1080p Ukr/Eng | sub Eng

Нові коментарі

Нова тема   Відповісти
Автор Повідомлення
Anonymous 







2013-07-15 22:40  
На відстані удару / Striking Distance (1993) 1080p Ukr/Eng | sub Eng



Альтернативний український постер




Жанр: бойовик, трилер, детектив, кримінальний
Країна: США



Кінокомпанія: Columbia Pictures Corporation
Режисер: Роуді Герінгтон / Rowdy Herrington
Актори: Брюс Вілліс / Bruce Willis, Сара Джессіка Паркер / Sarah Jessica Parker, Том Сайзмор / Tom Sizemore, Брайон Джеймс / Brion James, Денніс Фаріна / Dennis Farina, Роберт Пастореллі / Robert Pastorelli, Тімоті Басфілд / Timothy Busfield, Джон Махоуні / John Mahoney та інші.

Сюжет:
Поліцейський Том Харді, переведений в загін річкової поліції, починає вести неофіційне розслідування у справі серійного вбивці, що тероризує місто. Його версія про злочинця відрізняється від тієї, якої дотримуються влада та колеги. Він упевнений, що маніяк - працівник поліції, і лише його напарниця підтримує цю ідею. Продовжуючи пошук убивці, вони не здогадуються про те, що той, кого вони розшукують з такою завзятістю, сам шукає зустрічі з ними.


Тривалість: 01:41:44
Якість: 1080p
Відео:
кодек:
розмір кадру: 1920х1040
бітрейт: 9715 кб/с

Аудіо # 1:
мова: українська
переклад: багатоголосий закадровий
Ролі озвучили: Олег Лепенець (Брюс Вілліс / Том Харді), Владислав Пупков, Олесь Гімбаржевський і Ніна Касторф
кодек: 5.1
бітрейт: 448 кб/с

Аудіо # 2:
мова: англійська
переклад: оригінал
кодек: 5.1
бітрейт: 448 кб/с

Субтитри:
мова: англійська
тип: програмні (м'які)
формат: *.srt

Збережено оригінальні розділи, як на Blu-ray.
MediaInfo
General
Unique ID : 252865610212868076791846741427226096778 (0xBE3C2522BFA358B4AD31778C53E7348A)
Complete name : Striking.Distance.1993..1080p.Ukr.Eng.mkv
Format : Matroska
Format version : Version 4 / Version 2
File size : 7.54 GiB
Duration : 1h 41mn
Overall bit rate : 10.6 Mbps
Movie name : На відстані удару / Striking Distance / На расстоянии удара (1993)
Encoded date : UTC 2013-07-15 11:54:22
Writing application : mkvmerge v6.3.0 ('You can't stop me!') built on Jun 28 2013 20:09:41
Writing library : libebml v1.3.0 + libmatroska v1.4.0

Video
ID : 1
Format : AVC
Format/Info : Advanced Video Codec
Format profile : [email protected]
Format settings, CABAC : Yes
Format settings, ReFrames : 4 frames
Codec ID : V_MPEG4/ISO/AVC
Duration : 1h 41mn
Bit rate : 9 715 Kbps
Width : 1 920 pixels
Height : 1 040 pixels
Display aspect ratio : 1.85:1
Frame rate mode : Constant
Frame rate : 23.976 fps
Color space : YUV
Chroma subsampling : 4:2:0
Bit depth : 8 bits
Scan type : Progressive
Bits/(Pixel*Frame) : 0.203
Stream size : 6.75 GiB (90%)
Title : На відстані удару / Striking Distance / На расстоянии удара (1993) [NoLimits-Team denis_100]
Writing library : core 133 r2334 a3ac64b
Encoding settings : cabac=1 / ref=4 / deblock=1:-3:-3 / analyse=0x3:0x113 / me=umh / subme=11 / psy=1 / psy_rd=1.00:0.10 / mixed_ref=1 / me_range=32 / chroma_me=1 / trellis=2 / 8x8dct=1 / cqm=0 / deadzone=21,11 / fast_pskip=0 / chroma_qp_offset=-3 / threads=6 / lookahead_threads=1 / sliced_threads=0 / nr=0 / decimate=0 / interlaced=0 / bluray_compat=0 / constrained_intra=0 / bframes=6 / b_pyramid=2 / b_adapt=2 / b_bias=0 / direct=3 / weightb=1 / open_gop=0 / weightp=2 / keyint=240 / keyint_min=23 / scenecut=40 / intra_refresh=0 / rc_lookahead=60 / rc=2pass / mbtree=1 / bitrate=9715 / ratetol=1.0 / qcomp=0.60 / qpmin=0 / qpmax=69 / qpstep=4 / cplxblur=20.0 / qblur=0.5 / ip_ratio=1.40 / aq=1:0.95
Language : English
Default : Yes
Forced : No

Audio #1
ID : 2
Format : AC-3
Format/Info : Audio Coding 3
Mode extension : CM (complete main)
Format settings, Endianness : Big
Codec ID : A_AC3
Duration : 1h 41mn
Bit rate mode : Constant
Bit rate : 448 Kbps
Channel(s) : 6 channels
Channel positions : Front: L C R, Side: L R, LFE
Sampling rate : 48.0 KHz
Bit depth : 16 bits
Compression mode : Lossy
Stream size : 326 MiB (4%)
Title : MVO [K1] 5.1 448 Kbps [Hurtom-JACKUS]
Language : Ukrainian
Default : Yes
Forced : No

Audio #2
ID : 3
Format : AC-3
Format/Info : Audio Coding 3
Mode extension : CM (complete main)
Format settings, Endianness : Big
Codec ID : A_AC3
Duration : 1h 41mn
Bit rate mode : Constant
Bit rate : 448 Kbps
Channel(s) : 6 channels
Channel positions : Front: L C R, Side: L R, LFE
Sampling rate : 48.0 KHz
Bit depth : 16 bits
Compression mode : Lossy
Stream size : 326 MiB (4%)
Title : Original
Language : English
Default : No
Forced : No

Text
ID : 4
Format : UTF-8
Codec ID : S_TEXT/UTF8
Codec ID/Info : UTF-8 Plain Text
Title : Eng full
Language : English
Default : No
Forced : No

Menu
00:00:00.000 : en:00:00:00.000
00:05:59.942 : en:00:05:59.942
00:12:58.527 : en:00:12:58.527
00:18:49.044 : en:00:18:49.044
00:25:05.837 : en:00:25:05.837
00:31:06.781 : en:00:31:06.781
00:37:49.058 : en:00:37:49.058
00:43:44.413 : en:00:43:44.413
00:46:15.439 : en:00:46:15.439
00:53:48.725 : en:00:53:48.725
01:00:23.119 : en:01:00:23.119
01:08:09.335 : en:01:08:09.335
01:12:46.945 : en:01:12:46.945
01:20:55.392 : en:01:20:55.392
01:31:17.638 : en:01:31:17.638
01:33:52.084 : en:01:33:52.084


Джерела та подяки: ріп відео, оригінальний звук - _denis_100 (NoLimits-Team); українська доріжка - JACKUS - зведення, Romario_O - запис з ТБ; оригінальні субтитри - JACKUS (всі - Гуртом).

Особиста оцінка: 8 - мені сподобалося

ЗАЛИШАЙТЕСЬ ЯКОМОГА ДОВШЕ НА РОЗДАЧІ!

СКАЧАВ САМ - ДАЙ СКАЧАТИ ІНШИМ


Срібний реліз (на рейтинг впливає 50% завантаженого)
 Трекер:    Зареєстрований   

Завантажити / скачати фільм українською



відео для новачків



 Зареєстрований:   2013-07-15 22:40
 Розмір:   7.54 GB 
 Оцінка фільму:   4/10 (Голосів: 15)
   
Інші релізи
Ваш часовий пояс: GMT + 2 Години

Нова тема   Відповісти